EXSite.pl - Portal ze wszystkim Mamy tutaj wszystko

NIE MASZ JESZCZE KONTA? ZAREJESTRUJ SIĘ ZA DARMO!   
Przypomnij hasło X

The Reunion (2011) DvDRip.XviD.Ac3.Feel-Free

Dodał: ampatinis 7 Listopad 2011 14:42


The Reunion (2011) DvDRip.XviD.Ac3.Feel-Free

The Reunion (2011) DvDRip.XviD.Ac3.Feel-Free

The Reunion (2011) DvDRip.XviD.Ac3.Feel-Free
gatunek: dramat, akcja

Sam i Leo wyrastali we wzajemnej nienawiści, nie wiedząc nawet o swoim trzecim bracie, Douglasie. Wszyscy mają tego samego ojca, ale inne matki. W chwili śmierci ojca dochodzi do spotkania rodze?stwa. Ich siostra, Nina, będzie musiała rozsądzić kto dostanie spadek. Nie będzie to łatwa decyzja...



Format : AVI
Format/Info : Audio Video Interleave
File size : 973 MiB
Duration : 1h 36mn
Overall bit rate : 1 416 Kbps

Video
ID : 0
Format : MPEG-4 Visual
Format profile : Advanced Simple@L5
Format settings, BVOP : Yes
Format settings, QPel : No
Format settings, GMC : No warppoints
Format settings, Matrix : Default (H.263)
Muxing mode : Packed bitstream
Codec ID : XVID
Codec ID/Hint : XviD
Duration : 1h 36mn
Bit rate : 959 Kbps
Width : 720 pixels
Height : 400 pixels
Display aspect ratio : 16:9
Frame rate : 23.976 fps
Color space : YUV
Chroma subsampling : 4:2:0
Bit depth : 8 bits
Scan type : Progressive
Bits/(Pixel*Frame) : 0.139
Stream size : 659 MiB (68%)
Writing library : XviD 1.2.1 (UTC 2008-12-04)

Audio
ID : 1
Format : AC-3
Format/Info : Audio Coding 3
Mode extension : CM (complete main)
Codec ID : 2000
Duration : 1h 36mn
Bit rate mode : Constant
Bit rate : 448 Kbps
Channel(s) : 6 channels
Channel positions : Front: L C R, Side: L R, LFE
Sampling rate : 48.0 KHz
Bit depth : 16 bits
Stream size : 308 MiB (32%)
Alignment : Split accross interleaves
Interleave, duration : 42 ms (1.00 video frame)
Interleave, preload duration : 500 ms


The Reunion (2011) DvDRip.XviD.Ac3.Feel-Free
The Reunion (2011) DvDRip.XviD.Ac3.Feel-Free The Reunion (2011) DvDRip.XviD.Ac3.Feel-Free
The Reunion (2011) DvDRip.XviD.Ac3.Feel-Free
Uwaga! Linki nie zakodowane tylko dla zarejestrowanych użytkowników!

Nie masz konta? Zarejestruj się za darmo!
----------------
Links are not encoded only for registered users only! Plese login or register!



Użytkownik VIP

ghwaySuper Uploader

#1 | Dodany: 7 Listopad 2011 21:27

The Reunion (2011) DVDRip.XviD-PlayXD

Dane techniczne:
Release: DVDRip.XviD-PlayXD
Waga: 700 MB
Audio: DVD [eng]
VIDEO: [XVID] 640x352 24bpp 23.976 fps 887.9 kbps (108.4 kbyte/s)
AUDIO: 48000 Hz, 2 ch, s16le, 128.0 kbit/8.33% (ratio: 16000->192000)


Download - 1 link:

Fileserve
Uwaga! Linki nie zakodowane tylko dla zarejestrowanych użytkowników!

Nie masz konta? Zarejestruj się za darmo!
----------------
Links are not encoded only for registered users only! Plese login or register!


Wupload
Uwaga! Linki nie zakodowane tylko dla zarejestrowanych użytkowników!

Nie masz konta? Zarejestruj się za darmo!
----------------
Links are not encoded only for registered users only! Plese login or register!


Filesonic
Uwaga! Linki nie zakodowane tylko dla zarejestrowanych użytkowników!

Nie masz konta? Zarejestruj się za darmo!
----------------
Links are not encoded only for registered users only! Plese login or register!

Informacje

Jeżeli chcesz skomentować artykuł musisz być zarejestrowany na stronie.