EXSite.pl - Portal ze wszystkim Mamy tutaj wszystko

NIE MASZ JESZCZE KONTA? ZAREJESTRUJ SIĘ ZA DARMO!   
Przypomnij hasło X

Harry Angel / Angel Heart (1987) PL.480p.BDRip.H264.AC3-Sajmon

Dodał: sajmon22 7 Listopad 2011 16:27


Harry Angel / Angel Heart (1987) PL.480p.BDRip.H264.AC3-Sajmon
Harry Angel / Angel Heart
czas trwania: 1 godz. 53 min.
gatunek: Horror, Kryminał
premiera: 6 marca 1987 (świat)
reżyseria: Alan Parker
scenariusz: Alan Parker

Opis:
Prywatny detektyw, Harry Angel, specjalizujący się w rozwodach i sprawach ubezpieczeniowych, otrzymuje od niejakiego Louisa Cyphre'a nietypowe zadanie. Harry ma odnaleźć Johnny'ego Favorite'a, słynnego przed laty śpiewaka jazzowego, który nie wywiązał się z kontraktu. Ranny w czasie wojny stracił pamięć, został umieszczony w specjalnej klinice dla kombatantów. Niestety, zniknął ze szpitala w tajemniczych okolicznościach. Angel prowadząc śledztwo, usiłuje rozwiązać zagadkę. Życie detektywa staje się koszmarem.

General
Complete name : Angel.Heart.1987.PL.480p.BDRip.H264.AC3-Sajmon
Format : AVI
File size : 1.99 GiB
Duration : 1h 53mn
Overall bit rate : 2 523 Kbps

Video
Codec ID : H264
Bit rate : 2 066 Kbps
Width : 720 pixels
Height : 384 pixels
Display aspect ratio : 1.875
Frame rate : 24.000 fps
Bits/(Pixel*Frame) : 0.311
Stream size : 1.63 GiB (82%)

Audio
Format : AC-3
Bit rate : 448 Kbps
Channel(s) : 6 channels
Stream size : 363 MiB (18%)
Uwaga! Linki nie zakodowane tylko dla zarejestrowanych użytkowników!

Nie masz konta? Zarejestruj się za darmo!
----------------
Links are not encoded only for registered users only! Plese login or register!

Informacje

Jeżeli chcesz skomentować artykuł musisz być zarejestrowany na stronie.