EXSite.pl - Portal ze wszystkim Mamy tutaj wszystko

NIE MASZ JESZCZE KONTA? ZAREJESTRUJ SIĘ ZA DARMO!   
Przypomnij hasło X

Melancholia (2011) PL.DVDRip.H264.AC3-Sajmon

Dodał: sajmon22 7 Listopad 2011 17:05


Melancholia (2011) PL.DVDRip.H264.AC3-Sajmon

czas trwania: 2 godz. 10 min.
gatunek: Dramat, Sci-Fi
premiera: 27 maja 2011 (Polska) 2011-05-27 18 maja 2011 (świat) 2011-05-18
reżyseria: Lars von Trier
scenariusz: Lars von Trier

Kolejny po głośnym, prowokacyjnym "Antychryście" film Larsa von Triera. Tym razem autor "Przełamując fale" i "Ta?cząc w ciemnościach" pragnie zrealizować bardzo osobiste, psychologiczne kino katastroficzne i piękny film o ko?cu świata. Głównymi bohaterkami "Melancholii" są dwie siostry grane przez Kirsten Dunst i Charlotte Gainsbourg. Młodsza wychodzi właśnie za mąż, gdy okazuje się, że do Ziemi niebezpiecznie zbliża się inna planeta, grożąc ko?cem świata. Przyszłego męża zagra Alexander Skarsg?rd, jego świadka Stellan Skarsg?rd (faktycznie ojciec Alexandra), a John Hurt wcieli się w ojca sióstr. W filmie pojawią się także Charlotte Rampling, Kiefer Sutherland czy Udo Kier.

General
Complete name : Melancholia.2011.PL.DVDRip.H264.AC3-Sajmon
Format : AVI
File size : 1.36 GiB
Duration : 2h 9mn
Overall bit rate : 1 499 Kbps

Video
Codec ID : H264
Bit rate : 1 298 Kbps
Width : 720 pixels
Height : 302 pixels
Display aspect ratio : 2.40:1
Frame rate : 25.000 fps
Bits/(Pixel*Frame) : 0.239
Stream size : 1.18 GiB (87%)

Audio
Format : AC-3
Bit rate : 192 Kbps
Channel(s) : 2 channels
Stream size : 178 MiB (13%)
Uwaga! Linki nie zakodowane tylko dla zarejestrowanych użytkowników!

Nie masz konta? Zarejestruj się za darmo!
----------------
Links are not encoded only for registered users only! Plese login or register!

Użytkownik VIP

RiCo26VIP

#1 | Dodany: 7 Listopad 2011 17:10

Nazwa releasu:
Melancholia (2011) PL.DVDRiP.XViD-PSiG


Dane techniczne:
TITLE ORYG.......: Melancholia                                      
       TITLE PL.........: Melancholia                                      
        RELEASE DATE.....: 05/11/2011                                        
        LANGUAGE.........: Polish Lector                                    
        GENRE............: Drama | Sci-Fi                                    
        RUNTiME..........: 2 h 9 min                                        
        SOURCE...........: PSiG's DVD9                                      
                                                                            
        ViDEO............: ~1305 kbps, XViD                                  
        AUDiO............: ~192 kbps, 2 chnls, AC3                          
        ASPECT RATiO.....: 2.35:1                                            
        RESOLUTiON.......: 640 x 272                                        
        FRAMERATE........: 25.000 FPS                                        
        SiZE.............: 1.36 GB


Opis uploadu:
wielkość całości: 1,36 gb
rodzaj kompresji: .rar
zawartość uploadu: plik .avi
brak danych naprawczych

Download:
(można pobierać zamiennie z serwerów)
http://www.filesonic.com/file/3039437524/Melancholia.2011.PL.DVDRiP.XViD-PSiG.part3.rar
http://www.filesonic.com/file/3039437544/Melancholia.2011.PL.DVDRiP.XViD-PSiG.part2.rar
http://www.filesonic.com/file/3039413124/Melancholia.2011.PL.DVDRiP.XViD-PSiG.part1.rar
http://www.filesonic.com/file/3039405454/Melancholia.2011.PL.DVDRiP.XViD-PSiG.part4.rar

http://www.fileserve.com/file/P3Shtcr
http://www.fileserve.com/file/qTHDVPJ
http://www.fileserve.com/file/tpShyrV
http://www.fileserve.com/file/4zbXrsp

HASŁO:
Brak

Informacje

Jeżeli chcesz skomentować artykuł musisz być zarejestrowany na stronie.