EXSite.pl - Portal ze wszystkim Mamy tutaj wszystko

NIE MASZ JESZCZE KONTA? ZAREJESTRUJ SIĘ ZA DARMO!   
Przypomnij hasło X

Lucky (2011) BRRIP.XviD-Team4

Dodał: ampatinis 7 Listopad 2011 17:37


Lucky (2011) BRRIP.XviD-Team4

Lucky (2011) BRRIP.XviD-Team4

Lucky (2011) BRRIP.XviD-Team4
PRODUKCJA: USA
GATUNEK: Komedia
CZAS TRWANIA: 90 minut
DATA PREMIERY: 15 lipca 2011 (świat)
REŻYSERIA: Gil Cates Jr
SCENARIUSZ: Gil Cates Jr., Kent Sublette
OBSADA: Colin Hanks, Ari Graynor, Ann-Margret, Jeffrey Tambor, Elizabeth Uhl

OPIS: Film opowiada o seryjnym mordercy, który wygrał w totolotka dużą ilość pieniędzy. Nagle jego świat wywraca się do góry nogami. Dziewczyna, w której jest zakochany w ko?cu zwraca na niego uwagę. Owa fortuna ściąga również na niego niepożądane zainteresowanie.

info
File size: 747 MiB
Duration : 1h 43mn
Overall bit rate: 1 005 Kbps
Sample Included


Video
ID : 0
Format : MPEG-4 Visual
Format profile : Advanced Simple@L5
Format settings, BVOP : 2
Format settings, QPel : No
Format settings, GMC : No warppoints
Format settings, Matrix : Default (H.263)
Codec ID : XVID
Codec ID/Hint : XviD
Duration : 1h 43mn
Bit rate : 872 Kbps
Width : 640 pixels
Height : 272 pixels
Display aspect ratio : 2.35:1
Frame rate : 23.976 fps
Color space : YUV
Chroma subsampling : 4:2:0
Bit depth : 8 bits
Scan type : Progressive
Compression mode : Lossy
Bits/(Pixel*Frame) : 0.209
Stream size : 648 MiB (87%)
Writing library : XviD 1.2.1 (UTC 2008-12-04)

Audio
ID : 1
Format : MPEG Audio
Format version : Version 1
Format profile : Layer 3
Mode : Joint stereo
Mode extension : MS Stereo
Codec ID : 55
Codec ID/Hint : MP3
Duration : 1h 43mn
Bit rate mode : Constant
Bit rate : 128 Kbps
Channel(s) : 2 channels
Sampling rate : 48.0 KHz
Compression mode : Lossy
Stream size : 95.1 MiB (13%)
Alignment : Aligned on interleaves
Interleave, duration : 167 ms (4.00 video frames)
Interleave, preload duration : 216 ms


Lucky (2011) BRRIP.XviD-Team4
Lucky (2011) BRRIP.XviD-Team4 Lucky (2011) BRRIP.XviD-Team4

Lucky (2011) BRRIP.XviD-Team4
Uwaga! Linki nie zakodowane tylko dla zarejestrowanych użytkowników!

Nie masz konta? Zarejestruj się za darmo!
----------------
Links are not encoded only for registered users only! Plese login or register!



Użytkownik VIP

ghwaySuper Uploader

#1 | Dodany: 7 Listopad 2011 21:24

Lucky (2011) BRRIP.XVID-AbSurdiTy

Dane techniczne:
Release name: Lucky.2011.BRRIP.XVID-AbSurdiTy
Size: 703 MB
Video: XviD | 672 x 288 | 23.976 fps
Audio: English | MP3 | 112 kbps | 48 KHz | 2 channels
Runtime: 1h 43 min


Download - 1 link:

Fileserve
Uwaga! Linki nie zakodowane tylko dla zarejestrowanych użytkowników!

Nie masz konta? Zarejestruj się za darmo!
----------------
Links are not encoded only for registered users only! Plese login or register!


Wupload
Uwaga! Linki nie zakodowane tylko dla zarejestrowanych użytkowników!

Nie masz konta? Zarejestruj się za darmo!
----------------
Links are not encoded only for registered users only! Plese login or register!


Filesonic
Uwaga! Linki nie zakodowane tylko dla zarejestrowanych użytkowników!

Nie masz konta? Zarejestruj się za darmo!
----------------
Links are not encoded only for registered users only! Plese login or register!

Informacje

Jeżeli chcesz skomentować artykuł musisz być zarejestrowany na stronie.