EXSite.pl - Portal ze wszystkim Mamy tutaj wszystko

NIE MASZ JESZCZE KONTA? ZAREJESTRUJ SIĘ ZA DARMO!   
Przypomnij hasło X

Ty będziesz następna / Sorority Row (2009) PL.DVDRip.H264.AC3-Sajmon

Dodał: sajmon22 7 Listopad 2011 18:00


Ty będziesz następna / Sorority Row (2009) PL.DVDRip.H264.AC3-Sajmon
Ty będziesz następna / Sorority Row
czas trwania: 1 godz. 41 min.
gatunek: Horror
premiera: 9 września 2009 (świat)
reżyseria: Stewart Hendler
scenariusz: Mark Rosman, Josh Stolberg

Opis:
Szóstka dziewcząt z bractwa wiedzie beztroskie, pełne imprez i zabawy życie w koledżu. Gdy jedna z nich, Megan, odkrywa, że jej chłopak dopuścił się zdrady, wszystkie postanawiają zemścić się na niewdzięczniku, pozorując przy nim śmierć Megan. Psikus przeradza się w tragedię, gdy nieświadomy niczego chłopak faktycznie zabija swoją byłą dziewczynę. Zszokowani morderstwem, wszyscy postanawiają zapomnieć o całym zajściu i żyć dalej swoim życiem. Jednak, gdy rok po uko?czeniu nauki dziewczęta i bliskich, którzy znają ich sekret zaczyna prześladować tajemniczy zabójca, to okazuje się nie być wcale proste.

General
Complete name : Sorority.Row.2009.PL.DVDRip.H264.AC3-Sajmon
Format : AVI
File size : 1.36 GiB
Duration : 1h 36mn
Overall bit rate : 2 013 Kbps

Video
Codec ID : H264
Bit rate : 1 556 Kbps
Width : 720 pixels
Height : 402 pixels
Display aspect ratio : 16:9
Frame rate : 25.000 fps
Bits/(Pixel*Frame) : 0.215
Stream size : 1.05 GiB (77%)

Audio
Format : AC-3
Bit rate : 448 Kbps
Channel(s) : 6 channels
Stream size : 310 MiB (22%)
Uwaga! Linki nie zakodowane tylko dla zarejestrowanych użytkowników!

Nie masz konta? Zarejestruj się za darmo!
----------------
Links are not encoded only for registered users only! Plese login or register!

Użytkownik VIP

LAFFAVIP

#1 | Dodany: 7 Listopad 2011 21:50

Dobra Wstaweczka :]

Informacje

Jeżeli chcesz skomentować artykuł musisz być zarejestrowany na stronie.