EXSite.pl - Portal ze wszystkim Mamy tutaj wszystko

NIE MASZ JESZCZE KONTA? ZAREJESTRUJ SIĘ ZA DARMO!   
Przypomnij hasło X

Spawn (1997) PL.DVDRip.H264.AC3-Sajmon

Dodał: sajmon22 7 Listopad 2011 18:41


Spawn (1997) PL.DVDRip.H264.AC3-Sajmon
czas trwania: 1 godz. 36 min.
gatunek: Horror, Akcja
premiera: 28 listopada 1997 (Polska) 1 sierpnia 1997 (świat)
reżyseria: Mark A.Z. Dipp?
scenariusz: Alan B. McElroy

Opis:
Oficer służb specjalnych przybywa do Korei Północnej, by rozpocząć i zniszczyć wytwórnię broni masowego rażenia. Podczas operacji ginie z ręki swego przełożonego. W kilka lat później pojawia się w Nowym Jorku - został powołany do życia przez diabelskie siły.

General
Complete name : Spawn.1997.PL.DVDRip.H264.AC3-Sajmon
Format : AVI
File size : 1.36 GiB
Duration : 1h 34mn
Overall bit rate : 2 066 Kbps

Video
Codec ID : H264
Bit rate : 1 864 Kbps
Width : 700 pixels
Height : 380 pixels
Display aspect ratio : 16:9
Frame rate : 25.000 fps
Bits/(Pixel*Frame) : 0.280
Stream size : 1.23 GiB (90%)

Audio
Format : AC-3
Bit rate : 192 Kbps
Channel(s) : 2 channels
Stream size : 130 MiB (9%)
Uwaga! Linki nie zakodowane tylko dla zarejestrowanych użytkowników!

Nie masz konta? Zarejestruj się za darmo!
----------------
Links are not encoded only for registered users only! Plese login or register!

Użytkownik VIP

kriszpanUżytkownik

#1 | Dodany: 7 Listopad 2011 18:48

ok wink
Dlaczego ściągam z neta.......? Bo jestem BIEDNY ;P
Użytkownik VIP

LAFFAVIP

#2 | Dodany: 7 Listopad 2011 21:47

thx
Użytkownik VIP

kartaczVIP Uploader

#3 | Dodany: 11 Lipiec 2012 15:56


RIP INFO:
Spawn.1997.PL.DVDRip.DivX-bruk

Video............: 720 x 576, DivX, 1201 kbps
Audio............: MP3, 116 kbps, 2 kanały
Czas trwania.....: 93 min
Język............: Polski Lektor
Rozmiar..........: 888 MB
Rodzaj kompresji.: .rar
Zawartość uploadu: plik .avi
Dane naprawcze...: Brak


W partach, można pobierać naprzemiennie:

Uwaga! Linki nie zakodowane tylko dla zarejestrowanych użytkowników!

Nie masz konta? Zarejestruj się za darmo!
----------------
Links are not encoded only for registered users only! Plese login or register!


Pojedy?czy link:

Uwaga! Linki nie zakodowane tylko dla zarejestrowanych użytkowników!

Nie masz konta? Zarejestruj się za darmo!
----------------
Links are not encoded only for registered users only! Plese login or register!

Informacje

Jeżeli chcesz skomentować artykuł musisz być zarejestrowany na stronie.