EXSite.pl - Portal ze wszystkim Mamy tutaj wszystko

NIE MASZ JESZCZE KONTA? ZAREJESTRUJ SIĘ ZA DARMO!   
Przypomnij hasło X

11.11.11 (2011) 720p.H.264.AC3.DVDRip-RealGoneKid

Dodał: ampatinis 8 Listopad 2011 12:48


11.11.11 (2011) 720p.H.264.AC3.DVDRip-RealGoneKid

11.11.11 (2011) 720p.H.264.AC3.DVDRip-RealGoneKid

11.11.11 (2011) 720p.H.264.AC3.DVDRip-RealGoneKid
Po tragicznej śmierci żony i dziecka, słynny ameryka?ski pisarz Joseph Crone (Timothy Gibbs), udaje się do Barcelony, by pogodzić się z bratem i umierającym ojcem. Niespodziewanie, jego życie przybiera zupełnie inny kierunek, gdy zaczyna doświadczać szeregu dziwnych wydarze?, mających związek z liczbą 11. Ciekawość zmieniająca się w obsesję, prowadzi Josepha do odkrycia przerażającej prawdy i ujawnienia apokaliptycznej daty 11-11-11...


11-11-11 2011 720p H.264 AC3 DVDRip RealGoneKid

Format : Matroska
Format version : Version 2
File size : 3.90 GiB
Duration : 1h 32mn
Overall bit rate : 6 005 Kbps
Movie name : 11-11-11 2011 720p H.264 AC3 DVDRip RealGoneKid
Encoded date : UTC 2011-11-05 22:38:23
Writing application : DVDFab
Writing library : libebml v0.7.8 + libmatroska v0.8.1

Video
ID : 1
Format : AVC
Format/Info : Advanced Video Codec
Format profile : High@L5.1
Format settings, CABAC : Yes
Format settings, ReFrames : 2 frames
Format settings, GOP : M=2, N=9
Codec ID : V_MPEG4/ISO/AVC
Duration : 1h 32mn
Bit rate : 5 438 Kbps
Width : 1 280 pixels
Height : 536 pixels
Display aspect ratio : 2.40:1
Frame rate : 23.976 fps
Color space : YUV
Chroma subsampling : 4:2:0
Bit depth : 8 bits
Scan type : Progressive
Bits/(Pixel*Frame) : 0.331
Stream size : 3.53 GiB (91%)
Writing library : x264 core
Color primaries : BT.709-5, BT.1361, IEC 61966-2-4, SMPTE RP177
Transfer characteristics : BT.709-5, BT.1361
Matrix coefficients : BT.709-5, BT.1361, IEC 61966-2-4 709, SMPTE RP177

Audio
ID : 2
Format : AC-3
Format/Info : Audio Coding 3
Mode extension : CM (complete main)
Codec ID : A_AC3
Duration : 1h 32mn
Bit rate mode : Constant
Bit rate : 448 Kbps
Channel(s) : 6 channels
Channel positions : Front: L C R, Side: L R, LFE
Sampling rate : 48.0 KHz
Bit depth : 16 bits
Compression mode : Lossy
Stream size : 298 MiB (7%)

Source: 11.11.11 (2011) DVDRip [MKV AC3][RoB] Thanks.
Sample Included: Yes

Resized to 720p
Increased the Bitrate and filesize.


11.11.11 (2011) 720p.H.264.AC3.DVDRip-RealGoneKid
11.11.11 (2011) 720p.H.264.AC3.DVDRip-RealGoneKid 11.11.11 (2011) 720p.H.264.AC3.DVDRip-RealGoneKid

11.11.11 (2011) 720p.H.264.AC3.DVDRip-RealGoneKid
Uwaga! Linki nie zakodowane tylko dla zarejestrowanych użytkowników!

Nie masz konta? Zarejestruj się za darmo!
----------------
Links are not encoded only for registered users only! Plese login or register!



Informacje

Jeżeli chcesz skomentować artykuł musisz być zarejestrowany na stronie.