EXSite.pl - Portal ze wszystkim Mamy tutaj wszystko

NIE MASZ JESZCZE KONTA? ZAREJESTRUJ SIĘ ZA DARMO!   
Przypomnij hasło X

Trener / Coach (2010) PL.DVDRip.H264.AC3-Sajmon

Dodał: sajmon22 8 Listopad 2011 17:13


Trener / Coach (2010) PL.DVDRip.H264.AC3-Sajmon
Trener / Coach
gatunek: Romans, Sportowy
reżyseria: Will Frears
scenariusz: Will Frears, Jason Pugatch

Opis:
Nick ma 30 lat i żyje bez zobowiąza?, pracy i odpowiedzialności. Kiedy jego ambitna dziewczyna, Zoe opuszcza go i wyjeżdża do Los Angeles robić karierę, Nick obmyśla plan jak ją odzyskać. Przyjmuje posadę trenera piłki nożnej w gimnazjum, by pokazać Zoe, że potrafi być odpowiedzialnym mężczyzną. Jednak to, co początkowo traktował jako rozrywkę, staje się dla niego bardzo ważną częścią jego obecnego życia.

General
Complete name : Coach.2010.PL.DVDRip.H264.AC3-Sajmon
Format : AVI
File size : 1.36 GiB
Duration : 1h 23mn
Overall bit rate : 2 336 Kbps

Video
Codec ID : H264
Bit rate : 1 942 Kbps
Width : 720 pixels
Height : 540 pixels
Display aspect ratio : 4:3
Frame rate : 25.000 fps
Bits/(Pixel*Frame) : 0.200
Stream size : 1.13 GiB (83%)

Audio
Format : AC-3
Bit rate : 384 Kbps
Channel(s) : 6 channels
Stream size : 230 MiB (16%)
Uwaga! Linki nie zakodowane tylko dla zarejestrowanych użytkowników!

Nie masz konta? Zarejestruj się za darmo!
----------------
Links are not encoded only for registered users only! Plese login or register!

Informacje

Jeżeli chcesz skomentować artykuł musisz być zarejestrowany na stronie.