EXSite.pl - Portal ze wszystkim Mamy tutaj wszystko

NIE MASZ JESZCZE KONTA? ZAREJESTRUJ SIĘ ZA DARMO!   
Przypomnij hasło X

Tajna jednostka / Special Ops (2010) PL.DVDRip.H264.AC3-Sajmon

Dodał: sajmon22 8 Listopad 2011 19:17


Tajna jednostka / Special Ops (2010) PL.DVDRip.H264.AC3-Sajmon

Tytuł: Special Ops / Tajna jednostka
Gatunek: Film sensacyjny
Kraj: USA
Rok produkcji: 2010
Reżyseria: Tom Shell
Obsada: A.J. Draven, Steven Bauer, Finola Hughes, Rez Cortez, Matthew Alan, Matt Boren, John Milton Branton

Oddział, którym dowodzi Kyle Fierson (A.J. Draven), ma za zadanie uwolnić ameryka?skiego naukowca, który został uprowadzony przez filipi?skich terrorystów na polecenie Lilian Carlyle (Finola Hughes), szefowej firmy z branży przemysłu zbrojeniowego. Badacz wynalazł nową technologię nuklearną. Jego odkrycie warte jest miliardy dolarów. Podwładni kapitana Fiersona muszą ponadto odebrać złoczy?com pierwowzór mikroczipu, dzięki któremu można zbudować minibombę. Tymczasem opłaceni przez Lilian ludzie zastawiają pułapkę na żołnierzy sił specjalnych, dowodzonych przez pułkownika Caine'a (Steven Bauer).

Tajna jednostka / Special Ops (2010) PL.DVDRip.H264.AC3-Sajmon Tajna jednostka / Special Ops (2010) PL.DVDRip.H264.AC3-Sajmon Tajna jednostka / Special Ops (2010) PL.DVDRip.H264.AC3-Sajmon

General
Complete name : Special.Ops.2010.PL.DVDRip.H264.AC3-Sajmon
Format : AVI
File size : 1.36 GiB
Duration : 1h 38mn
Overall bit rate : 1 979 Kbps

Video
Codec ID : H264
Bit rate : 1 778 Kbps
Width : 720 pixels
Height : 402 pixels
Display aspect ratio : 16:9
Frame rate : 25.000 fps
Bits/(Pixel*Frame) : 0.246
Stream size : 1.22 GiB (90%)

Audio
Format : AC-3
Bit rate : 192 Kbps
Channel(s) : 2 channels
Stream size : 135 MiB (10%)
Uwaga! Linki nie zakodowane tylko dla zarejestrowanych użytkowników!

Nie masz konta? Zarejestruj się za darmo!
----------------
Links are not encoded only for registered users only! Plese login or register!

Informacje

Jeżeli chcesz skomentować artykuł musisz być zarejestrowany na stronie.