EXSite.pl - Portal ze wszystkim Mamy tutaj wszystko

NIE MASZ JESZCZE KONTA? ZAREJESTRUJ SIĘ ZA DARMO!   
Przypomnij hasło X

Alyce (2011) DvDRip.XviD.Ac3.Feel-Free

Dodał: ampatinis 8 Listopad 2011 22:04


Alyce (2011) DvDRip.XviD.Ac3.Feel-Free

Alyce (2011) DvDRip.XviD.Ac3.Feel-Free

Alyce (2011) DvDRip.XviD.Ac3.Feel-Free
o przypadkowo spowodej śmierci jej najlepszych przyjaciół Alyce dręczy poczucie winy i coraz bardziej zagłębia się w brutalną krainę seksu, narkotyków i przemocy ...

Format : AVI
Format/Info : Audio Video Interleave
File size : 965 MiB
Duration : 1h 29mn
Overall bit rate : 1 499 Kbps

Video
ID : 0
Format : MPEG-4 Visual
Format profile : Advanced Simple@L5
Format settings, BVOP : Yes
Format settings, QPel : No
Format settings, GMC : No warppoints
Format settings, Matrix : Default (H.263)
Muxing mode : Packed bitstream
Codec ID : XVID
Codec ID/Hint : XviD
Duration : 1h 29mn
Bit rate : 1 042 Kbps
Width : 720 pixels
Height : 400 pixels
Display aspect ratio : 16:9
Frame rate : 25.000 fps
Color space : YUV
Chroma subsampling : 4:2:0
Bit depth : 8 bits
Scan type : Progressive
Bits/(Pixel*Frame) : 0.145
Stream size : 670 MiB (69%)
Writing library : XviD 1.2.1 (UTC 2008-12-04)

Audio
ID : 1
Format : AC-3
Format/Info : Audio Coding 3
Mode extension : CM (complete main)
Codec ID : 2000
Duration : 1h 29mn
Bit rate mode : Constant
Bit rate : 448 Kbps
Channel(s) : 6 channels
Channel positions : Front: L C R, Side: L R, LFE
Sampling rate : 48.0 KHz
Bit depth : 16 bits
Stream size : 288 MiB (30%)
Alignment : Split accross interleaves
Interleave, duration : 40 ms (1.00 video frame)
Interleave, preload duration : 500 ms


Alyce (2011) DvDRip.XviD.Ac3.Feel-Free
Alyce (2011) DvDRip.XviD.Ac3.Feel-Free Alyce (2011) DvDRip.XviD.Ac3.Feel-Free

Alyce (2011) DvDRip.XviD.Ac3.Feel-Free
Uwaga! Linki nie zakodowane tylko dla zarejestrowanych użytkowników!

Nie masz konta? Zarejestruj się za darmo!
----------------
Links are not encoded only for registered users only! Plese login or register!



Użytkownik VIP

freepixUżytkownik

#1 | Dodany: 28 Czerwiec 2012 13:48

Alyce (2011) DVDRIP Xvid AC3-BHRG

Info:


Release Name: Alyce.2011.DVDRIP.Xvid.AC3-BHRG
Size: 1.8GB
Video: x264, 720?400, 1h 29mn
Audio: English
Runtime: 1h 29mn


Download:


http://rapidgator.net/file/21625700/Alyce.2011.DVDRIP.Xvid.AC3-BHRG.rar.html



http://turbobit.net/sya2qyo9z228/Alyce.2011.DVDRIP.Xvid.AC3-BHRG.rar.html


No Password
Użytkownik VIP

matx23Gość

#2 | Dodany: 7 Czerwiec 2013 22:54

Alyce 2011 [BRRip.XviD] [Lektor PL]


=======================
...::: DANE TECHNICZNE :::...
=======================

Alyce.2011.PL.BRRip.XviD-sav

Format : AVI at 1.086 Kb/s
Length : 699 MB for 1h 29 min. 56s 40ms

Video #0 : MPEG-4 Visual at 952 Kb/s
Aspect : 640 x 352 (1.818) at 25.000 fps

Audio #0 : MPEG Audio at 128 Kb/s
Infos : 2 kanały, 48,0 KHz

Source V/A ......: BluRay.x264-BRMP / HDTV - CiNEMAX HD


>>>BitShare<<<

Uwaga! Linki nie zakodowane tylko dla zarejestrowanych użytkowników!

Nie masz konta? Zarejestruj się za darmo!
----------------
Links are not encoded only for registered users only! Plese login or register!

>>>EgoFiles<<<

Uwaga! Linki nie zakodowane tylko dla zarejestrowanych użytkowników!

Nie masz konta? Zarejestruj się za darmo!
----------------
Links are not encoded only for registered users only! Plese login or register!

love

Informacje

Jeżeli chcesz skomentować artykuł musisz być zarejestrowany na stronie.