EXSite.pl - Portal ze wszystkim Mamy tutaj wszystko

NIE MASZ JESZCZE KONTA? ZAREJESTRUJ SIĘ ZA DARMO!   
Przypomnij hasło X

Druhny / Bridesmaids (2011) PL.DVDRip.H264.AC3-Sajmon

Dodał: sajmon22 9 Listopad 2011 17:19


Druhny / Bridesmaids (2011) PL.DVDRip.H264.AC3-Sajmon
Druhny / Bridesmaids
reżyseria: Paul Feig
scenariusz: Annie Mumolo, Kristen Wiig
premiera: 29 lipca 2011 (Polska) 28 kwietnia 2011 (świat)
produkcja: USA
gatunek: Komedia rom.

Opis:
świetna komedia wyprodukowana przez Judda Apatowa; to Hangover dla kobiet … Film opowiada o przedślubnych perypetiach druhen, które wybierają się do Las Vegas… Mnóstwo znakomitych dialogów, fantastyczna muzyka zapewnią znakomitą wakacyjną rozrywkę.

General
Complete name : Bridesmaids.2011.PL.DVDRip.H264.AC3-Sajmon
Format : AVI
File size : 1.36 GiB
Duration : 1h 59mn
Overall bit rate : 1 627 Kbps

Video
Codec ID : H264
Bit rate : 1 233 Kbps
Width : 720 pixels
Height : 298 pixels
Display aspect ratio : 2.40:1
Frame rate : 25.000 fps
Bits/(Pixel*Frame) : 0.230
Stream size : 1.03 GiB (76%)

Audio
Format : AC-3
Bit rate : 384 Kbps
Channel(s) : 6 channels
Stream size : 329 MiB (24%)
Uwaga! Linki nie zakodowane tylko dla zarejestrowanych użytkowników!

Nie masz konta? Zarejestruj się za darmo!
----------------
Links are not encoded only for registered users only! Plese login or register!

Informacje

Jeżeli chcesz skomentować artykuł musisz być zarejestrowany na stronie.