EXSite.pl - Portal ze wszystkim Mamy tutaj wszystko

NIE MASZ JESZCZE KONTA? ZAREJESTRUJ SIĘ ZA DARMO!   
Przypomnij hasło X

Mysteria (2011) BRRip.XviD.AC3-SiC

Dodał: ampatinis 9 Listopad 2011 21:50


Mysteria (2011) BRRip.XviD.AC3-SiC

Mysteria (2011) BRRip.XviD.AC3-SiC

Mysteria (2011) BRRip.XviD.AC3-SiC
Znany hollywoodzki scenarzysta stara się uko?czyć swój najnowszy skrypt, gdy przypadkowo zostaje wplątany w sprawę morderstwa. Zaistniała sytuacja staja się dla niego źródłem inspiracji.

MediaInfo:
General
Complete name : Mysteria.2011.BRRip.XviD.AC3-SiC.avi
Format : AVI
Format/Info : Audio Video Interleave
File size : 1.37 GiB
Duration : 1h 33mn
Overall bit rate : 2 082 Kbps

Video
ID : 0
Format : MPEG-4 Visual
Format profile : Advanced Simple@L5
Format settings, BVOP : 2
Format settings, QPel : No
Format settings, GMC : No warppoints
Format settings, Matrix : Default (MPEG)
Muxing mode : Packed bitstream
Codec ID : XVID
Codec ID/Hint : XviD
Duration : 1h 33mn
Bit rate : 1 690 Kbps
Width : 720 pixels
Height : 304 pixels
Display aspect ratio : 2.35:1
Frame rate : 23.976 fps
Color space : YUV
Chroma subsampling : 4:2:0
Bit depth : 8 bits
Scan type : Progressive
Compression mode : Lossy
Bits/(Pixel*Frame) : 0.322
Stream size : 1.11 GiB (81%)
Writing library : XviD 64

Audio
ID : 1
Format : AC-3
Format/Info : Audio Coding 3
Mode extension : CM (complete main)
Codec ID : 2000
Duration : 1h 33mn
Bit rate mode : Constant
Bit rate : 384 Kbps
Channel(s) : 6 channels
Channel positions : Front: L C R, Side: L R, LFE
Sampling rate : 48.0 KHz
Bit depth : 16 bits
Compression mode : Lossy
Stream size : 258 MiB (18%)
Alignment : Aligned on interleaves
Interleave, duration : 64 ms (1.53 video frames)
Interleave, preload duration : 192 ms


Mysteria (2011) BRRip.XviD.AC3-SiC

Mysteria (2011) BRRip.XviD.AC3-SiC Mysteria (2011) BRRip.XviD.AC3-SiC

Mysteria (2011) BRRip.XviD.AC3-SiC
Uwaga! Linki nie zakodowane tylko dla zarejestrowanych użytkowników!

Nie masz konta? Zarejestruj się za darmo!
----------------
Links are not encoded only for registered users only! Plese login or register!



Użytkownik VIP

c_cycUżytkownik

#1 | Dodany: 12 Listopad 2011 19:33

A masz może napisy

Informacje

Jeżeli chcesz skomentować artykuł musisz być zarejestrowany na stronie.