EXSite.pl - Portal ze wszystkim Mamy tutaj wszystko

NIE MASZ JESZCZE KONTA? ZAREJESTRUJ SIĘ ZA DARMO!   
Przypomnij hasło X

Draka na dzielni / Attack The Block (2011) PL.DVDRip.H264.AC3-Sajmon

Dodał: sajmon22 10 Listopad 2011 14:41


Draka na dzielni / Attack The Block (2011) PL.DVDRip.H264.AC3-Sajmon

reżyseria: Joe Cornish
scenariusz: Joe Cornish
premiera: 13 maja 2011 (świat)
produkcja: Wielka Brytania
gatunek: Komedia, Akcja, Sci-Fi

Kosmici mają to do siebie, że lubią atakować Ziemian. Te bestialskie drapieżniki nie raz już dawały nam się we znaki. Tym razem jednak się przeliczyły. Atak na mieszka?ców blokowiska to ich poważny błąd. Hip hopowi chłopcy potrafią zadbać o siebie i nie zasypiają gruszek w jointowym popiele. Gdy nadchodzi zagrożenie, ujarani czy nie, podciągają gatki aż po cycki, by im nic nie przeszkadzało w kroku, i twardo stawiają opór. Film od twórców "Wysypu żywych trupów" to komedia SF i na bank znajdzie w naszym kraju wielu ziomków tfuu... znaczy fanów.

General
Complete name : Attack.the.Block.2011.PL.DVDRip.H264.AC3-Sajmon
Format : AVI
File size : 1.36 GiB
Duration : 1h 24mn
Overall bit rate : 2 308 Kbps

Video
Codec ID : H264
Bit rate : 2 106 Kbps
Width : 720 pixels
Height : 298 pixels
Display aspect ratio : 2.40:1
Frame rate : 25.000 fps
Bits/(Pixel*Frame) : 0.393
Stream size : 1.24 GiB (91%)

Audio
Format : AC-3
Bit rate : 192 Kbps
Channel(s) : 2 channels
Stream size : 116 MiB (8%)
Uwaga! Linki nie zakodowane tylko dla zarejestrowanych użytkowników!

Nie masz konta? Zarejestruj się za darmo!
----------------
Links are not encoded only for registered users only! Plese login or register!

Użytkownik VIP

KliomtVIP Uploader

#1 | Dodany: 10 Listopad 2011 14:42

ok
✿♫ ❤‿♥ ☆•°*”˜♪˜”*°•☆ ◔‿◕ ♫✿

Informacje

Jeżeli chcesz skomentować artykuł musisz być zarejestrowany na stronie.