EXSite.pl - Portal ze wszystkim Mamy tutaj wszystko

NIE MASZ JESZCZE KONTA? ZAREJESTRUJ SIĘ ZA DARMO!   
Przypomnij hasło X

Zła Kobieta / Bad Teacher (2011) PL.DVDRip.H264.AC3-Sajmon

Dodał: sajmon22 10 Listopad 2011 15:35


Zła Kobieta / Bad Teacher (2011) PL.DVDRip.H264.AC3-Sajmon

iNFO:

produkcja: USA
gatunek: Komedia
reżyseria: Jake Kasdan
scenariusz: Lee Eisenberg, Gene Stupnitsky
premiera: 12 sierpnia 2011 (Polska) 17 czerwca 2011 (świat)
czas trwania: 92 min.

OPiS:
Elizabeth Halsey (Cameron Diaz) jest nauczycielką, której nie zależy. Jest wulgarna, bezwzględna i zupełnie nieodpowiednia na to stanowisko. Pije, pali i marzy tylko o tym, żeby jak najszybciej rzucić tę robotę. Porzucona przez narzeczonego, rozpoczyna intrygę, której celem jest uwiedzenia przystojnego i bogatego Scotta (Justin Timberlake). O jego względy musi jednak walczyć z energiczną Amy (Lucy Punch) jednocześnie odrzucając uporczywe zaloty nauczyciela wychowania fizycznego (Jason Segel). Knowania Elizabeth i ich nieoczekiwane konsekwencje zszokują jej uczniów, współpracowników, a co więcej nawet ją samą.

General
Complete name : Bad.Teacher.2011.PL.DVDRip.H264.AC3-Sajmon
Format : AVI
File size : 1.36 GiB
Duration : 1h 33mn
Overall bit rate : 2 082 Kbps

Video
Codec ID : H264
Bit rate : 1 689 Kbps
Width : 720 pixels
Height : 386 pixels
Display aspect ratio : 1.865
Bits/(Pixel*Frame) : 0.243
Stream size : 1.10 GiB (81%)

Audio
Format : AC-3
Duration : 1h 33mn
Bit rate : 384 Kbps
Channel(s) : 6 channels
Stream size : 257 MiB (18%)
Uwaga! Linki nie zakodowane tylko dla zarejestrowanych użytkowników!

Nie masz konta? Zarejestruj się za darmo!
----------------
Links are not encoded only for registered users only! Plese login or register!

Informacje

Jeżeli chcesz skomentować artykuł musisz być zarejestrowany na stronie.