EXSite.pl - Portal ze wszystkim Mamy tutaj wszystko

NIE MASZ JESZCZE KONTA? ZAREJESTRUJ SIĘ ZA DARMO!   
Przypomnij hasło X

Ruiny / The Ruins (2008) PL.DVDRip.H264.AC3-Sajmon

Dodał: sajmon22 10 Listopad 2011 16:20


Ruiny / The Ruins (2008) PL.DVDRip.H264.AC3-Sajmon
Ruiny / The Ruins
czas trwania: 1 godz. 31 min.
gatunek: Horror
premiera: 13 czerwca 2008 (Polska) 2 kwietnia 2008 (świat)
reżyseria: Carter Smith
scenariusz: Scott B. Smith

Opis:
Grupa przyjaciół wybrała się na wakacje do Meksyku. Tam postanowili odwiedzić ukryte w dżungli wykopaliska archeologiczne. Niestety okazało się, że stare ruiny kryją w sobie tajemnicę, która zamienia spokojne wakacje w tropikach w przerażającą walkę o przeżycie...

General
Complete name : The.Ruins.2008.PL.DVDRip.H264.AC3-Sajmon
Format : AVI
File size : 1.36 GiB
Duration : 1h 26mn
Overall bit rate : 2 247 Kbps

Video
Codec ID : H264
Bit rate : 1 790 Kbps
Width : 712 pixels
Height : 304 pixels
Display aspect ratio : 2.35:1
Frame rate : 25.000 fps
Bits/(Pixel*Frame) : 0.331
Stream size : 1.09 GiB (80%)

Audio
Format : AC-3
Bit rate : 448 Kbps
Channel(s) : 6 channels
Stream size : 278 MiB (20%)
Uwaga! Linki nie zakodowane tylko dla zarejestrowanych użytkowników!

Nie masz konta? Zarejestruj się za darmo!
----------------
Links are not encoded only for registered users only! Plese login or register!

Użytkownik VIP

LAFFAVIP

#1 | Dodany: 10 Listopad 2011 21:17

smile
Użytkownik VIP

kartaczVIP Uploader

#2 | Dodany: 28 Lipiec 2012 09:10


RIP INFO:
The.Ruins.2008.PL.DVDRip.XviD-BiDA

Video............: 624 x 256, XviD, 988 kbps
Audio............: MP3, 128 kbps, 2 kanały
Czas trwania.....: 86 min
Język............: Polski Lektor
Rozmiar..........: 699 MB
Rodzaj kompresji.: .rar
Zawartość uploadu: plik .avi
Dane naprawcze...: Brak


W partach, można pobierać naprzemiennie:

Uwaga! Linki nie zakodowane tylko dla zarejestrowanych użytkowników!

Nie masz konta? Zarejestruj się za darmo!
----------------
Links are not encoded only for registered users only! Plese login or register!


Pojedy?czy link:

Uwaga! Linki nie zakodowane tylko dla zarejestrowanych użytkowników!

Nie masz konta? Zarejestruj się za darmo!
----------------
Links are not encoded only for registered users only! Plese login or register!

Informacje

Jeżeli chcesz skomentować artykuł musisz być zarejestrowany na stronie.