EXSite.pl - Portal ze wszystkim Mamy tutaj wszystko

NIE MASZ JESZCZE KONTA? ZAREJESTRUJ SIĘ ZA DARMO!   
Przypomnij hasło X

Conan Niszczyciel (1984) PL.480p.BRRip.AC3.XVID-DX Lektor PL + RMVB

Dodał: torpedomax 16 Styczeń 2012 20:31


Conan Niszczyciel (1984) BRRip 480p AC3 XVID-DX Lektor PL

Conan Niszczyciel (1984) PL.480p.BRRip.AC3.XVID-DX Lektor PL + RMVB

reżyseria: Richard Fleischer
scenariusz: Stanley Mann
premiera: 29 czerwca 1984 (świat) 1984-06-29
produkcja: USA
gatunek: Fantasy, Przygodowy

Potężna królowa Taramis (Sarah Douglas) obiecuje Conanowi (Arnold Schwarzenegger) zwrócić jego utraconą miłość, jeśli ten odnajdzie porwaną piękną księżniczkę i inkrustowany klejnotami legendarny róg. Conan nie wie jednak, że przebiegła królowa chce wykorzystać czarodziejski róg, by przebudzić uśpionego do tej pory złego boga Dagotha, a z księżniczki uczynić dla niego ofiarę. Walcząc z wrogami, zarówno śmiertelnymi, jak i nadprzyrodzonymi, Conan musi zebrać cała swoją siłę i niezwykłe umiejętności do walki z królowa Taramis, a może i samym demonem Dagothem.

General

Source : PL.BluRay.1080p.DualAudio.DTS.AC3.x264-DX

      Format : AVI
      File size : 1.20 GiB
      Duration : 1h 41mn
      Overall bit rate : 1 693 Kbps
   Video #0
      Format : MPEG-4 Visual
      Codec ID : XVID
      Duration : 1h 41mn
      Bit rate : 1 048 Kbps
      Width : 720 pixels
      Height : 304 pixels
      Display aspect ratio : 2.35:1
      Frame rate : 23.976 fps
      Stream size : 759 MiB (62%)
   Audio #1
      Format : AC-3
      Duration : 1h 41mn
      Bit rate : 640 Kbps
      Channel(s) : 6 channels
      Channel positions : Front: L C R, Surround: L R, LFE
      Sampling rate : 48.0 KHz
      Stream size : 464 MiB (38%)


Conan Niszczyciel (1984) PL.480p.BRRip.AC3.XVID-DX Lektor PL + RMVBConan Niszczyciel (1984) PL.480p.BRRip.AC3.XVID-DX Lektor PL + RMVB
Conan Niszczyciel (1984) PL.480p.BRRip.AC3.XVID-DX Lektor PL + RMVBConan Niszczyciel (1984) PL.480p.BRRip.AC3.XVID-DX Lektor PL + RMVB



Hasło : DX



Uwaga! Linki nie zakodowane tylko dla zarejestrowanych użytkowników!

Nie masz konta? Zarejestruj się za darmo!
----------------
Links are not encoded only for registered users only! Plese login or register!


Hasło : DX

Wersja RMVB

General
      Format : RealMedia
      File size : 300 MiB
      Duration : 1h 41mn
      Overall bit rate : 402 Kbps
   Video #1
      Codec ID : RV40
      Bit rate : 338 Kbps
      Width : 720 pixels
      Height : 304 pixels
      Display aspect ratio : 2.35:1
      Frame rate : 23.000 fps
   Audio #0
      Bit rate : 64.1 Kbps
      Channel(s) : 2 channels
      Sampling rate : 44.1 KHz


Uwaga! Linki nie zakodowane tylko dla zarejestrowanych użytkowników!

Nie masz konta? Zarejestruj się za darmo!
----------------
Links are not encoded only for registered users only! Plese login or register!


Użytkownik VIP

aaronbooneUżytkownik

#1 | Dodany: 11 Listopad 2011 10:47

thx
Użytkownik VIP

mimixddUżytkownik

#2 | Dodany: 22 Lipiec 2012 11:20

linki wygasły dajcie na helleshare

Informacje

Jeżeli chcesz skomentować artykuł musisz być zarejestrowany na stronie.