EXSite.pl - Portal ze wszystkim Mamy tutaj wszystko

NIE MASZ JESZCZE KONTA? ZAREJESTRUJ SIĘ ZA DARMO!   
Przypomnij hasło X

Zakochana złośnica / 10 Things I Hate About You (1999) PL.DVDRip.H264.AC3-Sajmon

Dodał: sajmon22 11 Listopad 2011 22:55


Zakochana złośnica / 10 Things I Hate About You (1999) PL.DVDRip.H264.AC3-Sajmon
Zakochana złośnica / 10 Things I Hate About You
czas trwania: 1 godz. 37 min.
gatunek: Komedia, Dla młodzieży
premiera: 2 lipca 1999 (Polska) 31 marca 1999 (świat)
reżyseria: Gil Junger
scenariusz: Kirsten Smith, Karen McCullah Lutz

Opis:
Uwspółcześniona ekranizacja "Poskromienia złośnicy". Akcja toczy się w prowincjonalnym mieście, wśród uczniów szkoły średniej. Rozwiedziony ojciec narzuca swym dwóm nastoletnim córkom surowe reguły. W myśl jednej z nich młodsza córka może rozglądać się za chłopakiem dopiero wtedy, gdy jej starsza siostra pozna swojego. Problem w tym, że o ile młodsza z sióstr jest pełna uroku i cieszy się popularnością wśród rówieśników, o tyle starsza uchodzi powszechnie za niepospolitą złośnicę. Dwaj uczniowie knują intrygę, by pozyskać ich względy.

General
Complete name : 10.Things.I.Hate.About.You.1999.PL.DVDRip.H264.AC3-Sajmon
Format : AVI
File size : 1.36 GiB
Duration : 1h 33mn
Overall bit rate : 2 084 Kbps

Video
Codec ID : H264
Bit rate : 1 690 Kbps
Width : 720 pixels
Height : 386 pixels
Display aspect ratio : 1.865
Frame rate : 25.000 fps
Bits/(Pixel*Frame) : 0.243
Stream size : 1.11 GiB (81%)

Audio
Format : AC-3
Bit rate : 384 Kbps
Channel(s) : 6 channels
Stream size : 257 MiB (18%)
Uwaga! Linki nie zakodowane tylko dla zarejestrowanych użytkowników!

Nie masz konta? Zarejestruj się za darmo!
----------------
Links are not encoded only for registered users only! Plese login or register!

Informacje

Jeżeli chcesz skomentować artykuł musisz być zarejestrowany na stronie.