EXSite.pl - Portal ze wszystkim Mamy tutaj wszystko

NIE MASZ JESZCZE KONTA? ZAREJESTRUJ SIĘ ZA DARMO!   
Przypomnij hasło X

The River Why (2010) BRRip.XviD.Ac3-Feel-Free

Dodał: ghway 13 Listopad 2011 11:13



The River Why (2010) BRRip.XviD.Ac3-Feel-Free


The River Why (2010) BRRip.XviD.Ac3-Feel-Free

The River Why (2010) BRRip.XviD.Ac3-Feel-Free
Produkcja: USA
Gatunek: Dramat
Czas trwania: 101 min.
Premiera: 09.04.2010 - świat
Reżyseria: Matthew Leutwyler

Adaptacja powieści autorstwa Davida Jamesa Duncana. Historia opowiada o młodym mężczyznie, Gusie Orvistonie i jego wyprawie, by znaleźć nieuchwytnego tęczowego pstrąga, co jest metaforą dla wewnętrznego poszukiwania samoświadomości.


Dane techniczne:


The River Why (2010) BRRip.XviD.Ac3-Feel-Free


The River Why (2010) BRRip.XviD.Ac3-Feel-Free

Fileserve
Uwaga! Linki nie zakodowane tylko dla zarejestrowanych użytkowników!

Nie masz konta? Zarejestruj się za darmo!
----------------
Links are not encoded only for registered users only! Plese login or register!


Wupload
Uwaga! Linki nie zakodowane tylko dla zarejestrowanych użytkowników!

Nie masz konta? Zarejestruj się za darmo!
----------------
Links are not encoded only for registered users only! Plese login or register!


Filesonic
Uwaga! Linki nie zakodowane tylko dla zarejestrowanych użytkowników!

Nie masz konta? Zarejestruj się za darmo!
----------------
Links are not encoded only for registered users only! Plese login or register!



Użytkownik VIP

ghwaySuper Uploader

#1 | Dodany: 13 Listopad 2011 11:14

smile
Użytkownik VIP

KuroskUżytkownik

#2 | Dodany: 13 Listopad 2011 12:26


taniec
www.photo-k.eu
Użytkownik VIP

ampatinisUżytkownik

#3 | Dodany: 13 Listopad 2011 18:06

The River Why (2010) BRRip.XviD.Ac3-Feel-Free


Source:720p.BluRay.x264.MELiTE Thanks!

Format : AVI
Format/Info : Audio Video Interleave
File size : 1.18 GiB
Duration : 1h 44mn
Overall bit rate : 1 624 Kbps

Video
ID : 0
Format : MPEG-4 Visual
Format profile : Advanced Simple@L5
Format settings, BVOP : Yes
Format settings, QPel : No
Format settings, GMC : No warppoints
Format settings, Matrix : Default (H.263)
Codec ID : XVID
Codec ID/Hint : XviD
Duration : 1h 44mn
Bit rate : 1 167 Kbps
Width : 640 pixels
Height : 272 pixels
Display aspect ratio : 2.35:1
Frame rate : 23.976 fps
Color space : YUV
Chroma subsampling : 4:2:0
Bit depth : 8 bits
Scan type : Progressive
Bits/(Pixel*Frame) : 0.280
Stream size : 869 MiB (72%)
Writing library : XviD 1.2.1 (UTC 2008-12-04)

Audio
ID : 1
Format : AC-3
Format/Info : Audio Coding 3
Mode extension : CM (complete main)
Codec ID : 2000
Duration : 1h 44mn
Bit rate mode : Constant
Bit rate : 448 Kbps
Channel(s) : 6 channels
Channel positions : Front: L C R, Side: L R, LFE
Sampling rate : 48.0 KHz
Bit depth : 16 bits
Stream size : 334 MiB (28%)
Alignment : Aligned on interleaves
Interleave, duration : 42 ms (1.00 video frame)
Interleave, preload duration : 512 ms



Uwaga! Linki nie zakodowane tylko dla zarejestrowanych użytkowników!

Nie masz konta? Zarejestruj się za darmo!
----------------
Links are not encoded only for registered users only! Plese login or register!
Użytkownik VIP

agatka26Użytkownik

#4 | Dodany: 8 Czerwiec 2012 03:15

ok
Rzeka pyta? / The River Why (2010) PL.BRRIP.XVID-AZMX LEKTOR PL

Nazwa: The.River.Why.2010.PL.BRRIP.XVID-AZMX
Data wydania: 08.06.2012
Liczba CD: 1
Parametry: Video - 640X272, XviD ~784 kbps; Audio - MP3 ~128 kbps
Dodatkowe info: Polski Lektor profesjonalny
Hasło/Pass: a26


party po 700 MB
tylko jeden link!!!


Uwaga! Linki nie zakodowane tylko dla zarejestrowanych użytkowników!

Nie masz konta? Zarejestruj się za darmo!
----------------
Links are not encoded only for registered users only! Plese login or register!

Informacje

Jeżeli chcesz skomentować artykuł musisz być zarejestrowany na stronie.