EXSite.pl - Portal ze wszystkim Mamy tutaj wszystko

NIE MASZ JESZCZE KONTA? ZAREJESTRUJ SIĘ ZA DARMO!   
Przypomnij hasło X

Constantine (2005) PL.DVDRip.H264.AC3-Sajmon

Dodał: sajmon22 13 Listopad 2011 11:36


Constantine (2005) PL.DVDRip.H264.AC3-Sajmon
czas trwania: 2 godz. 1 min.
gatunek: Fantasy, Thriller
premiera: 11 marca 2005 (Polska) 8 lutego 2005 (świat)
reżyseria: Francis Lawrence
scenariusz: Kevin Brodbin, Frank A. Cappello

Opis:
John Constantine urodził się z niechcianym darem, który stał się jego przekle?stwem - potrafi rozpoznawać tajemnicze istoty, kroczące po ziemi w ludzkich ciałach. W swych niebudzących podejrze? wcieleniach bez przeszkód wtapiają się w tłum, wypełniając swe misje. Jeżdżą samochodami, pracują, nawiązują kontakty z ludźmi. Taka istota może być mężem lub żoną, można mieć ją za przyjaciela lub sąsiada i nie mieć pojęcia o jej prawdziwej naturze. Nikt nie wie, że nie są normalnymi ludźmi.

General
Complete name : Constantine.2005.PL.DVDRip.H264.AC3-Sajmon
Format : AVI
File size : 1.35 GiB
Duration : 1h 59mn
Overall bit rate : 1 625 Kbps

Video
Codec ID : H264
Bit rate : 1 242 Kbps
Width : 720 pixels
Height : 294 pixels
Display aspect ratio : 2.40:1
Frame rate : 25.000 fps
Bits/(Pixel*Frame) : 0.235
Stream size : 1.03 GiB (76%)

Audio
Format : AC-3
Bit rate : 384 Kbps
Channel(s) : 6 channels
Stream size : 319 MiB (23%)
Uwaga! Linki nie zakodowane tylko dla zarejestrowanych użytkowników!

Nie masz konta? Zarejestruj się za darmo!
----------------
Links are not encoded only for registered users only! Plese login or register!

Użytkownik VIP

kartaczVIP Uploader

#1 | Dodany: 2 Sierpień 2012 14:47


RIP INFO:
Constantine.2005.PL.DVDRip.XviD-UNNAME

Video............: 640 x 256, XviD, 692 kbps
Audio............: MP3, 128 kbps, 2 kanały
Czas trwania.....: 119 min
Język............: Polski Lektor
Rozmiar..........: 706 MB
Rodzaj kompresji.: .rar
Zawartość uploadu: plik .avi
Dane naprawcze...: Brak


W partach, można pobierać naprzemiennie:

Uwaga! Linki nie zakodowane tylko dla zarejestrowanych użytkowników!

Nie masz konta? Zarejestruj się za darmo!
----------------
Links are not encoded only for registered users only! Plese login or register!

Pojedy?czy link:

Uwaga! Linki nie zakodowane tylko dla zarejestrowanych użytkowników!

Nie masz konta? Zarejestruj się za darmo!
----------------
Links are not encoded only for registered users only! Plese login or register!

Informacje

Jeżeli chcesz skomentować artykuł musisz być zarejestrowany na stronie.