EXSite.pl - Portal ze wszystkim Mamy tutaj wszystko

NIE MASZ JESZCZE KONTA? ZAREJESTRUJ SIĘ ZA DARMO!   
Przypomnij hasło X

Restitution (2011) DVDRiP.AC3.XViD-SIC

Dodał: ampatinis 13 Listopad 2011 18:04


Restitution (2011) DVDRiP.AC3.XViD-SIC

Restitution (2011) DVDRiP.AC3.XViD-SIC

Restitution (2011) DVDRiP.AC3.XViD-SIC
Pisarz powiesci kryminalnych prowadzacy sledztwo w sprawie morderstwa w malym miasteczku.Odkrywa on prawde ktora zmieni miasto na zawsze..


Restitution.2011.DVDRip.XviD.AC3-SiC
General
Complete name : Restitution.2011.DVDRip.XviD.AC3-SiC.avi
Format : AVI
Format/Info : Audio Video Interleave
File size : 1.37 GiB
Duration : 1h 40mn
Overall bit rate : 1 944 Kbps
VideoID : 0
Format : MPEG-4 Visual
Format profile : Advanced Simple@L5
Format settings, BVOP : Yes
Format settings, QPel : No
Format settings, GMC : No warppoints
Format settings, Matrix : Default (MPEG)
Muxing mode : Packed bitstream
Codec ID : XVID
Codec ID/Hint : XviD
Duration : 1h 40mn
Bit rate : 1 552 Kbps
Width : 720 pixels
Height : 384 pixels
Display aspect ratio : 1.875
Frame rate : 23.976 fps
Color space : YUV
Chroma subsampling : 4:2:0
Bit depth : 8 bits
Scan type : Progressive
Bits/(Pixel*Frame) : 0.234
Stream size : 1.09 GiB (80%)
Writing library : XviD 64
Audio
ID : 1
Format : AC-3
Format/Info : Audio Coding 3
Mode extension : CM (complete main)
Codec ID : 2000
Duration : 1h 40mn
Bit rate mode : Constant
Bit rate : 384 Kbps
Channel(s) : 6 channels
Channel positions : Front: L C R, Side: L R, LFE
Sampling rate : 48.0 KHz
Bit depth : 16 bits
Stream size : 277 MiB (20%)
Alignment : Aligned on interleaves
interleave, duration : 64 ms (1.53 video frames)
Interleave, preload duration : 192
Title : Restitution T80 3_2ch 384Kbps DELAY 0ms


Restitution (2011) DVDRiP.AC3.XViD-SIC

Restitution (2011) DVDRiP.AC3.XViD-SICRestitution (2011) DVDRiP.AC3.XViD-SIC

Restitution (2011) DVDRiP.AC3.XViD-SIC
Uwaga! Linki nie zakodowane tylko dla zarejestrowanych użytkowników!

Nie masz konta? Zarejestruj się za darmo!
----------------
Links are not encoded only for registered users only! Plese login or register!



Użytkownik VIP

ctrlalUżytkownik

#1 | Dodany: 14 Listopad 2011 19:32

Restitution (2011) DVDRiP.AC3.XViD-SiC


Duration : 1h 40mn
Overall bit rate : 1 944 Kbps
Video:
Format : MPEG-4 Visual
Codec ID : XVID
Duration : 1h 40mn
Bit rate : 1 552 Kbps
Width : 720 pixels
Height : 384 pixels
Display aspect ratio : 1.875
Frame rate : 23.976 fps

Audio
Format : AC-3
Duration : 1h 40mn
Bit rate mode : Constant
Bit rate : 384 Kbps
Channel(s) : 6 channels
Channel positions : Front: L C R, Side: L R, LFE
Sampling rate : 48.0 KHz
Bit depth : 16 bits
File size : 1.37 GiB


Filesonic

http://www.filesonic.com/file/3504705674/Restitution.2011.DVDRiP.AC3.XViD-SIC.part1.rar
http://www.filesonic.com/file/3504705694/Restitution.2011.DVDRiP.AC3.XViD-SIC.part2.rar
http://www.filesonic.com/file/3504705764/Restitution.2011.DVDRiP.AC3.XViD-SIC.part3.rar
http://www.filesonic.com/file/3504667974/Restitution.2011.DVDRiP.AC3.XViD-SIC.part4.rar


Uploaded

http://ul.to/sxbgzanm/Restitution.2011.DVDRiP.AC3.XViD-SIC.part1.rar
http://ul.to/ac5qumsj/Restitution.2011.DVDRiP.AC3.XViD-SIC.part2.rar
http://ul.to/io2s8lfu/Restitution.2011.DVDRiP.AC3.XViD-SIC.part3.rar
http://ul.to/rukrghps/Restitution.2011.DVDRiP.AC3.XViD-SIC.part4.rar


Interchangeable parts / No password
Użytkownik VIP

Mariusz 001Użytkownik

#2 | Dodany: 16 Listopad 2011 15:10

Restitution 2011 DVDRip.XviD-NYDIC


INFO

Produkcja.........................................: USA
Gatunek...........................................: Kryminał, Thriller
Premiera..........................................: 28.10.2011 - świat
Reżyseria........................................: Lance Kawas
Scenariusz........................................: Mark Bierlein, Lance Kawas
Czas trwania....................................: 101 min.


Plik : 707 MB (707 MB), czas 1:40:43, rodzaj: AVI, 1 ścieżka(i) audio, jakość 60 %
Video : 615 MB, 853 Kbps, 29.970 fps, rozdz. 624*352 (16:9),  XVID = XVID Mpeg-4, Obsługiwane
Audio : 92 MB, 128 Kbps, 48000 Hz, 2 kanał(y), 0x55 = MPEG Layer-3, CBR, Obsługiwane


http://www.filesonic.com/file/3730682135

NO PASSWORD

Informacje

Jeżeli chcesz skomentować artykuł musisz być zarejestrowany na stronie.