EXSite.pl - Portal ze wszystkim Mamy tutaj wszystko

NIE MASZ JESZCZE KONTA? ZAREJESTRUJ SIĘ ZA DARMO!   
Przypomnij hasło X

Anakondy Polowanie na Krwawą Orchideę / Anacondas The Hunt for the Blood Orchid (2004) PL.DVDRip.H264.AC3-Sajmon

Dodał: sajmon22 14 Listopad 2011 10:36


Anakondy Polowanie na Krwawą Orchideę / Anacondas The Hunt for the Blood Orchid (2004) PL.DVDRip.H264.AC3-Sajmon
Anakondy Polowanie na Krwawą Orchideę / Anacondas The Hunt for the Blood Orchid
czas trwania: 1 godz. 37 min.
gatunek: Horror, Przygodowy
premiera: 8 października 2004 (Polska) 25 sierpnia 2004 (świat)
reżyseria: Dwight H. Little
scenariusz: John Claflin, Daniel Zelman

Opis:
Sequel Anakondy z 1997 r. Ekspedycja naukowa wyrusza w najciemniejsze zakątki dżungli Borneo, by znaleźć kwiat nazywany Czarną Orchideą, który może zapewnić dłuższe życie i dlatego jest warty fortunę dla kompanii farmaceutycznej sponsorującej wyprawę. Jednak okazuje się, że członkowie wyprawy muszą stoczyć walkę z ogromnymi wężami..

Obsada:
Johnny Messner: Bill Johnson
KaDee Strickland: Sam Rogers
Matthew Marsden: Dr Jack Byron
Nicholas Gonzalez: Dr Ben Douglas
Eugene Byrd: Cole Burris
Karl Yune: Tran
Salli Richardson-Whitfield: Gail Stern
Morris Chestnut: Gordon Mitchell
Andy Anderson: John Livingston
Nicholas Hope: Christina Van Dyke

General
Complete name : Anacondas.The.Hunt.for.the.Blood.Orchid.2004.PL.DVDRip.H264.AC3-Sajmon
Format : AVI
File size : 1.36 GiB
Duration : 1h 32mn
Overall bit rate : 2 103 Kbps

Video
Codec ID : H264
Bit rate : 1 645 Kbps
Width : 720 pixels
Height : 298 pixels
Display aspect ratio : 2.40:1
Frame rate : 25.000 fps
Bits/(Pixel*Frame) : 0.307
Stream size : 1.07 GiB (78%)

Audio
Format : AC-3
Bit rate : 448 Kbps
Channel(s) : 6 channels
Stream size : 297 MiB (21%)
Uwaga! Linki nie zakodowane tylko dla zarejestrowanych użytkowników!

Nie masz konta? Zarejestruj się za darmo!
----------------
Links are not encoded only for registered users only! Plese login or register!

Informacje

Jeżeli chcesz skomentować artykuł musisz być zarejestrowany na stronie.