EXSite.pl - Portal ze wszystkim Mamy tutaj wszystko

NIE MASZ JESZCZE KONTA? ZAREJESTRUJ SIĘ ZA DARMO!   
Przypomnij hasło X

Syndrom Frankensteina / The Frankenstein Syndrome (2010) PL.SUBBED.DVDRip.XViD-J25 / NAPiSY PL +RMVB +x264

Dodał: joseph0025 21 Listopad 2011 15:25


Syndrom Frankensteina / The Frankenstein Syndrome (2010)

PL.SUBBED.DVDRip.XViD-J25 / NAPiSY PL


Syndrom Frankensteina  / The Frankenstein Syndrome (2010) PL.SUBBED.DVDRip.XViD-J25 / NAPiSY PL  +RMVB  +x264

Syndrom Frankensteina  / The Frankenstein Syndrome (2010) PL.SUBBED.DVDRip.XViD-J25 / NAPiSY PL  +RMVB  +x264


iNFO


czas trwania: 1 godz. 30 min.
gatunek: Horror
reżyseria: Sean Tretta
scenariusz: Sean Tretta

Młoda, piękna i ambitna Elizabeth dołącza do tajnego zespołu badającego komórki macierzyste. Celem bada? jest odkrycie uniwersalnego środka leczniczego. Elizabeth odkrywa coś innego - serum przywracające martwych do życia. Jej badania wzbudzają sprzeciw kierującego programem Marcusa i dr Victorii Travelle, ale toczą się one dalej dzięki naciskom osób finansujących projekt.



DANE TECHNiCZNE:
RELEASE:  The.Frankenstein.Syndrome.2010.PL.SUBBED.DVDRip.XViD-J25

Format            : AVI at 1.168 Kb/s
Length            : 700 MB for 1h 23 min. 47s 520ms

Video #0          : MPEG-4 Visual at 1.030 Kb/s
Aspect            : 720 x 304 (2.368) at 25.000 fps

Audio #0          : MPEG Audio at 128 Kb/s
Infos             : 2 kanały, 48,0 KHz

NAPiSY PL: WTOPiONE



OPiS UPLOADU:
Wielkość Uploadu: 700 MB
Rodzaj Kompresji: RAR
Zawartość Uploadu: Plik .AVi
Wersja Językowa: ENG
Dane Naprawcze: BRAK
Hasło: BRAK


SCREENY



Syndrom Frankensteina  / The Frankenstein Syndrome (2010) PL.SUBBED.DVDRip.XViD-J25 / NAPiSY PL  +RMVB  +x264 Syndrom Frankensteina  / The Frankenstein Syndrome (2010) PL.SUBBED.DVDRip.XViD-J25 / NAPiSY PL  +RMVB  +x264 Syndrom Frankensteina  / The Frankenstein Syndrome (2010) PL.SUBBED.DVDRip.XViD-J25 / NAPiSY PL  +RMVB  +x264 Syndrom Frankensteina  / The Frankenstein Syndrome (2010) PL.SUBBED.DVDRip.XViD-J25 / NAPiSY PL  +RMVB  +x264


SAMPLE

http://www30.zippyshare.com/v/97284520/file.html


POBiERZ / DOWNLOAD

PARTY PO 300MB | MOŻNA POBiERAĆ NA PRZEMiAN | BEZ HASŁA


Uwaga! Linki nie zakodowane tylko dla zarejestrowanych użytkowników!

Nie masz konta? Zarejestruj się za darmo!
----------------
Links are not encoded only for registered users only! Plese login or register!




WERSJA RMVB


DANE TECHNiCZNE:

Format            : RealMedia at 456 Kb/s
Length            : 280 MB for 1h 23 min. 47s 493ms

Video #0          : RealVideo 4 at 392 Kb/s
Aspect            : 720 x 304 (2.368) at 25.000 fps

Audio #0          : Cooker at 64,1 Kb/s
Infos             : 2 kanały, 44,1 KHz


POBiERZ / DOWNLOAD

!!! TYLKO 1 LiNK | POBiERASZ i OGLĄDASZ !!!



Uwaga! Linki nie zakodowane tylko dla zarejestrowanych użytkowników!

Nie masz konta? Zarejestruj się za darmo!
----------------
Links are not encoded only for registered users only! Plese login or register!





WERSJA x264


DANE TECHNiCZNE:

Format            : Matroska at 843 Kb/s
Length            : 505 MB for 1h 23 min. 47s 520ms

Video #0          : AVC
Aspect            : 720 x 304 (2.368) at 25.000 fps

Audio #0          : MPEG Audio
Infos             : 2 kanały, 48,0 KHz


POBiERZ / DOWNLOAD

!!! TYLKO 1 LiNK | POBiERASZ i OGLĄDASZ !!!



Uwaga! Linki nie zakodowane tylko dla zarejestrowanych użytkowników!

Nie masz konta? Zarejestruj się za darmo!
----------------
Links are not encoded only for registered users only! Plese login or register!


Użytkownik VIP

joseph0025VIP Uploader

#1 | Dodany: 14 Listopad 2011 19:56

smile
:)
Użytkownik VIP

argento7Użytkownik

#2 | Dodany: 14 Listopad 2011 21:23

thx
Użytkownik VIP

cacumenUżytkownik

#3 | Dodany: 14 Listopad 2011 23:36

ok brawo thx
Użytkownik VIP

SHADOWMAN76VIP

#4 | Dodany: 15 Listopad 2011 08:47

ok
Użytkownik VIP

amarriUżytkownik

#5 | Dodany: 15 Listopad 2011 15:41

thx
Fabian
Użytkownik VIP

neo 25Użytkownik

#6 | Dodany: 17 Listopad 2011 15:12

Syndrom Frankensteina / The Frankenstein Syndrome (2010) PL.SUBBED.DVDRip.XviD / Napisy PL + RMVB

Dane Techniczne:
Video
ID : 0
Format : MPEG-4 Visual
Format profile : Advanced Simple@L5
Format settings, BVOP : 1
Format settings, QPel : No
Format settings, GMC : No warppoints
Format settings, Matrix : Default (H.263)
Muxing mode : Packed bitstream
Codec ID : XVID
Codec ID/Hint : XviD
Duration : 1h 23mn
Bit rate : 1 030 Kbps
Width : 720 pixels
Height : 304 pixels
Display aspect ratio : 2.35:1
Frame rate : 25.000 fps
Color space : YUV
Chroma subsampling : 4:2:0
Bit depth : 8 bits
Scan type : Progressive
Compression mode : Lossy
Bits/(Pixel*Frame) : 0.188
Stream size : 617 MiB (88%)
Writing library : XviD 64

Audio
ID : 1
Format : MPEG Audio
Format version : Version 1
Format profile : Layer 3
Mode : Joint stereo
Mode extension : MS Stereo
Codec ID : 55
Codec ID/Hint : MP3
Duration : 1h 23mn
Bit rate mode : Constant
Bit rate : 128 Kbps
Channel(s) : 2 channels
Sampling rate : 48.0 KHz
Compression mode : Lossy
Stream size : 76.7 MiB (11%)
Alignment : Aligned on interleaves
Interleave, duration : 40 ms (1.00 video frame)
Interleave, preload duration : 504 ms
Writing library : LAME3.98r
Encoding settings : -m j -V 4 -q 2 -lowpass 17 -b 128


Download:

Uwaga! Linki nie zakodowane tylko dla zarejestrowanych użytkowników!

Nie masz konta? Zarejestruj się za darmo!
----------------
Links are not encoded only for registered users only! Plese login or register!


Wersja RMVB:

Dane Techniczne:
Video
ID : 1
Format : RealVideo 4
Codec ID : RV40
Codec ID/Info : Based on AVC (H.264), Real Player 9
Duration : 1h 23mn
Bit rate : 392 Kbps
Width : 720 pixels
Height : 304 pixels
Display aspect ratio : 2.35:1
Frame rate : 25.000 fps
Bits/(Pixel*Frame) : 0.072
Stream size : 235 MiB (84%)

Audio
ID : 0
Format : Cooker
Codec ID : cook
Codec ID/Info : Based on G.722.1, Real Player 6
Duration : 1h 23mn
Bit rate : 64.1 Kbps
Channel(s) : 2 channels
Sampling rate : 44.1 KHz
Bit depth : 16 bits
Stream size : 38.4 MiB (14%)


Download:

Uwaga! Linki nie zakodowane tylko dla zarejestrowanych użytkowników!

Nie masz konta? Zarejestruj się za darmo!
----------------
Links are not encoded only for registered users only! Plese login or register!

Użytkownik VIP

mat_marVIP

#7 | Dodany: 19 Listopad 2011 08:07

Syndrom Frankensteina / The Frankenstein Syndrome (2010) DVDRip Napisy PL



RELEASE: The.Frankenstein.Syndrome.2010.PL.SUBBED.DVDRip.XViD-J25

Format : AVI at 1.168 Kb/s
Length : 700 MB for 1h 23 min. 47s 520ms

Video #0 : MPEG-4 Visual at 1.030 Kb/s
Aspect : 720 x 304 (2.368) at 25.000 fps

Audio #0 : MPEG Audio at 128 Kb/s
Infos : 2 kanały, 48,0 KHz

NAPiSY PL: WTOPiONE



.:: DOWNLOAD ::.

# DOWNLOAD LINK'S - 400MB PART'S #
Uwaga! Linki nie zakodowane tylko dla zarejestrowanych użytkowników!

Nie masz konta? Zarejestruj się za darmo!
----------------
Links are not encoded only for registered users only! Plese login or register!

No pass
NAJWI?KSZY ZBI?R FILM?W FULL DVD | HD

<<KLIK>>


Informacje

Jeżeli chcesz skomentować artykuł musisz być zarejestrowany na stronie.