EXSite.pl - Portal ze wszystkim Mamy tutaj wszystko

NIE MASZ JESZCZE KONTA? ZAREJESTRUJ SIĘ ZA DARMO!   
Przypomnij hasło X

ściśle Tajne / Breach (2007) PL.DVDRip.H264.AC3-Sajmon

Dodał: sajmon22 15 Listopad 2011 13:58


ściśle Tajne / Breach (2007) PL.DVDRip.H264.AC3-Sajmon
ściśle Tajne / Breach
czas trwania: 1 godz. 50 min.
gatunek: Kryminał, Thriller, Szpiegowski
premiera: 11 maja 2007 (Polska) 12 lutego 2007 (świat)
reżyseria: Billy Ray
scenariusz: Billy Ray, Adam Mazer

Opis:
Film jest zainspirowany prawdziwymi wydarzeniami. Jego akcja rozgrywa się w środowisku funkcjonariuszy FBI - stróży najtajniejszych sekretów USA. Gdy młody Eric O'Neill (Phillippe) awansuje z mało znaczącego stanowiska, prosto do kwatery głównej Biura, jego marzenie o zostaniu prawdziwym agentem federalnym staje się coraz bardziej realne. Jakby tego było mało, O'Neill zostaje wyznaczony do wykonywania pracy dla znanego agenta Roberta Hanssena (Cooper). Jednak sytuacja mocno komplikuje się, gdy O'Neill odkrywa prawdziwe powody swojego awansu..

General
Complete name : Breach.2007.PL.DVDRip.H264.AC3-Sajmon
Format : AVI
File size : 1.36 GiB
Duration : 1h 45mn
Overall bit rate : 1 850 Kbps

Video
Codec ID : H264
Bit rate : 1 392 Kbps
Width : 720 pixels
Height : 402 pixels
Display aspect ratio : 16:9
Frame rate : 25.000 fps
Bits/(Pixel*Frame) : 0.192
Stream size : 1.02 GiB (75%)

Audio
Format : AC-3
Bit rate : 448 Kbps
Channel(s) : 6 channels
Stream size : 338 MiB (24%)
Uwaga! Linki nie zakodowane tylko dla zarejestrowanych użytkowników!

Nie masz konta? Zarejestruj się za darmo!
----------------
Links are not encoded only for registered users only! Plese login or register!

Użytkownik VIP

LAFFAVIP

#1 | Dodany: 15 Listopad 2011 22:02

ok

Informacje

Jeżeli chcesz skomentować artykuł musisz być zarejestrowany na stronie.