EXSite.pl - Portal ze wszystkim Mamy tutaj wszystko

NIE MASZ JESZCZE KONTA? ZAREJESTRUJ SIĘ ZA DARMO!   
Przypomnij hasło X

Czarny czwartek Janek Wiśniewski padł (2011) PL.DVDRip.H264.AC3-Sajmon

Dodał: sajmon22 15 Listopad 2011 16:27


Czarny czwartek Janek Wiśniewski padł (2011) PL.DVDRip.H264.AC3-Sajmon

reżyseria: Antoni Krauze
scenariusz: Michał S. Pruski,Mirosław Piepka
produkcja: Polska
gatunek: Dramat


Jedna z największych i najbardziej oczekiwanych polskich produkcji od czasu filmu "Popiełuszko. Wolność jest w nas". W przejmującym obrazie, porównywanym do nagrodzonej Złotym Niedźwiedziem "Krwawej niedzieli" Paula Greengrassa, Antoni Krauze przypomina jedną z najmroczniejszych kart z historii PRL-u. Widowiskową rekonstrukcję dramatycznych wydarze? w Gdyni, zako?czonych brutalną pacyfikacją manifestantów przez oddziały wojska i milicji w 1970 roku, wyróżniają nie tylko rozmach inscenizacyjny i trzymająca w napięciu akcja. Warto zwrócić uwagę na wybitne kreacje Piotra Fronczewskiego jako Zenona Kliszki oraz Wojciecha Pszoniaka jako Władysława Gomułki, a także wzruszające role debiutującej na ekranie Marty Honzatko i znanego z "U Pana Boga za miedzą" Michała Kowalskiego. Muzykę do filmu skomponował Michał Lorenc ("śluby panie?skie". "Balladę o Janku Wiśniewskim" - porywający motyw przewodni do "Czarnego czwartku" - zaśpiewał Kazik Staszewski.

General
Complete name : Czarny.Czwartek.Janek.Wisniewski.padl.2011.PL.DVDRip.H264.AC3-Sajmon
Format : AVI
File size : 1.36 GiB
Duration : 1h 45mn
Overall bit rate : 1 850 Kbps

Video
Codec ID : H264
Bit rate : 1 393 Kbps
Width : 720 pixels
Height : 386 pixels
Display aspect ratio : 1.865
Frame rate : 25.000 fps
Bits/(Pixel*Frame) : 0.200
Stream size : 1.02 GiB (75%)

Audio
Format : AC-3
Bit rate : 448 Kbps
Channel(s) : 6 channels
Stream size : 338 MiB (24%)
Uwaga! Linki nie zakodowane tylko dla zarejestrowanych użytkowników!

Nie masz konta? Zarejestruj się za darmo!
----------------
Links are not encoded only for registered users only! Plese login or register!

Użytkownik VIP

gacek017Użytkownik

#1 | Dodany: 15 Listopad 2011 16:44

Czarny Czwartek. Janek Wiśniewski padł (2011) PL.DVDRip.XviD-B89 / FiLM POLSKi

Uwaga! Linki nie zakodowane tylko dla zarejestrowanych użytkowników!

Nie masz konta? Zarejestruj się za darmo!
----------------
Links are not encoded only for registered users only! Plese login or register!

Informacje

Jeżeli chcesz skomentować artykuł musisz być zarejestrowany na stronie.