EXSite.pl - Portal ze wszystkim Mamy tutaj wszystko

NIE MASZ JESZCZE KONTA? ZAREJESTRUJ SIĘ ZA DARMO!   
Przypomnij hasło X

My Future BoyFriend (2011) HDTVrip.x264.Feel-Free

Dodał: ampatinis 15 Listopad 2011 20:13


My Future BoyFriend (2011) HDTVrip.x264.Feel-Free

My Future BoyFriend (2011) HDTVrip.x264.Feel-Free

My Future BoyFriend (2011) HDTVrip.x264.Feel-Free
Produkcja: USA
Gatunek: Komedia, Romans, Sci-Fi
Czas trwania.: 120 min.
Premiera: 10.04.2011 - świat
Reżyseria: Michael Lange
Scenariusz: James Orr, Jim Cruickshank


OPIS: W dalekiej przyszłości pewien archeolog odkrywa książkę, której bohaterami jest zakochana para. Okazuje się, że powieść napisana została w naszych czasach, co skłania mężczyznę, do cofnięcia się w czasie i przekonania na własnej skórze, czym jest znana mu z książek "miłość".



Format : MPEG-4
Format profile : Base Media
Codec ID : isom
File size : 1.17 GiB
Duration : 1h 15mn
Overall bit rate : 2 239 Kbps

Video
ID : 1
Format : AVC
Format/Info : Advanced Video Codec
Format profile : High@L5.1
Format settings, CABAC : Yes
Format settings, ReFrames : 3 frames
Codec ID : avc1
Codec ID/Info : Advanced Video Coding
Duration : 1h 15mn
Bit rate mode : Variable
Bit rate : 2 000 Kbps
Maximum bit rate : 10.9 Mbps
Width : 640 pixels
Height : 360 pixels
Display aspect ratio : 16:9
Frame rate mode : Constant
Frame rate : 23.976 fps
Color space : YUV
Chroma subsampling : 4:2:0
Bit depth : 8 bits
Scan type : Progressive
Bits/(Pixel*Frame) : 0.362
Stream size : 1.05 GiB (90%)
Writing library : x264

Audio
ID : 2
Format : AAC
Format/Info : Advanced Audio Codec
Format version : Version 4
Format profile : LC
Format settings, SBR : No
Codec ID : 40
Duration : 1h 15mn
Bit rate mode : Variable
Bit rate : 224 Kbps
Maximum bit rate : 314 Kbps
Channel(s) : 2 channels
Channel positions : Front: L R
Sampling rate : 48.0 KHz
Stream size : 120 MiB (10%)


My Future BoyFriend (2011) HDTVrip.x264.Feel-Free

My Future BoyFriend (2011) HDTVrip.x264.Feel-Free My Future BoyFriend (2011) HDTVrip.x264.Feel-Free

My Future BoyFriend (2011) HDTVrip.x264.Feel-Free
Uwaga! Linki nie zakodowane tylko dla zarejestrowanych użytkowników!

Nie masz konta? Zarejestruj się za darmo!
----------------
Links are not encoded only for registered users only! Plese login or register!



Informacje

Jeżeli chcesz skomentować artykuł musisz być zarejestrowany na stronie.