EXSite.pl - Portal ze wszystkim Mamy tutaj wszystko

NIE MASZ JESZCZE KONTA? ZAREJESTRUJ SIĘ ZA DARMO!   
Przypomnij hasło X

Harry Potter & Insygnia śmierci Część II / Harry Potter & The Deathly Hallows Part 2 (2011) PLDUB.DVDRip.H264.AC3-Sajmon

Dodał: sajmon22 16 Listopad 2011 11:15


Harry Potter & Insygnia śmierci Część II / Harry Potter & The Deathly Hallows Part 2 (2011) PLDUB.DVDRip.H264.AC3-Sajmon

czas trwania: 2 godz. 10 min.
gatunek: Familijny, Fantasy, Przygodowy
premiera: 15 lipca 2011 (Polska) 7 lipca 2011 (świat)
reżyseria: David Yates
scenariusz: Steve Kloves

W drugiej części widowiskowego zako?czenia serii walka sił dobra z siłami zła świata czarodziejów przeistacza się w otwartą wojnę. Stawka nigdy nie była tak wysoka; nikt nie może czuć się bezpieczny. Być może w trakcie nieuchronnie zbliżającej się ostatecznej rozgrywki z Lordem Voldemortem to Harry Potter będzie zmuszony do ostatecznego poświęcenia. Tak ko?czy się cała opowieść.

General
Complete name : Harry.Potter.and.the.Deathly.Hallows.Part.2.2011.PLDUB.DVDRip.H264.AC3-Sajmon
Format : AVI
File size : 1.36 GiB
Duration : 2h 5mn
Overall bit rate : 1 558 Kbps

Video
Codec ID : H264
Bit rate : 1 164 Kbps
Width : 720 pixels
Height : 298 pixels
Display aspect ratio : 2.40:1
Frame rate : 25.000 fps
Bits/(Pixel*Frame) : 0.217
Stream size : 1.02 GiB (75%)

Audio
Format : AC-3
Bit rate : 384 Kbps
Channel(s) : 6 channels
Stream size : 344 MiB (25%)
Uwaga! Linki nie zakodowane tylko dla zarejestrowanych użytkowników!

Nie masz konta? Zarejestruj się za darmo!
----------------
Links are not encoded only for registered users only! Plese login or register!

Użytkownik VIP

hulkkUżytkownik

#1 | Dodany: 16 Listopad 2011 12:49

ok
Użytkownik VIP

bieerytTrial Uploader

#2 | Dodany: 24 Grudzień 2013 21:42

Harry Potter i Insygnia Smierci: Część II / Harry Potter and the Deathly Hallows Part 2 (2011) Dubbing.PL.DVDRip.AC3-BiDA / Lektor PL


Opis uploadu:

[VIDEO]
Codec: XviD
Resolution: 672 x 288 (2.33:1)
Bitrate: 1 274 kb/s
Frame Rate: 30.000 fps

[AUDIO]
Codec: AC3
Bitrate: 384 kb/s (2 chnls)
Frequency Sample: 48000Hz

Wielkość uploadu: 145GB
Rodzaj kompresji: brak
Zawartość uploadu: .avi
Wersja językowa: Dubbing PL
Dane naprawcze: 0%
Hasło: brak hasła



Download:


Uwaga! Linki nie zakodowane tylko dla zarejestrowanych użytkowników!

Nie masz konta? Zarejestruj się za darmo!
----------------
Links are not encoded only for registered users only! Plese login or register!


Uwaga! Linki nie zakodowane tylko dla zarejestrowanych użytkowników!

Nie masz konta? Zarejestruj się za darmo!
----------------
Links are not encoded only for registered users only! Plese login or register!


Uwaga! Linki nie zakodowane tylko dla zarejestrowanych użytkowników!

Nie masz konta? Zarejestruj się za darmo!
----------------
Links are not encoded only for registered users only! Plese login or register!

Informacje

Jeżeli chcesz skomentować artykuł musisz być zarejestrowany na stronie.