EXSite.pl - Portal ze wszystkim Mamy tutaj wszystko

NIE MASZ JESZCZE KONTA? ZAREJESTRUJ SIĘ ZA DARMO!   
Przypomnij hasło X

Osadzony / Lock Up (1989) PL.DVDRip.H264.AC3-Sajmon

Dodał: sajmon22 16 Listopad 2011 15:52


Osadzony / Lock Up (1989) PL.DVDRip.H264.AC3-Sajmon
Osadzony / Lock Up
czas trwania: 1 godz. 49 min.
gatunek: Dramat, Kryminał, Thriller, Akcja
premiera: 4 sierpnia 1989 (świat)
reżyseria: John Flynn
scenariusz: Jeb Stuart, Henry Rosenbaum

Opis:
Frank Leone mechanik samochodowy odsiadujący drugi wyrok za ucieczkę z zakładu karnego zostaje nieoczekiwanie przeniesiony do więzienie o zaostrzonym rygorze z którego niegdyś uciekł. Drumgole dyrektor więzienia, cynik i sadysta stawia sobie za punkt honoru złamanie psychiczne i sprowokowanie ucieczki Franka.

General
Complete name : Lock.Up.1989.PL.DVDRip.H264.AC3-Sajmon
Format : AVI
File size : 1.36 GiB
Duration : 1h 43mn
Overall bit rate : 1 876 Kbps

Video
Codec ID : H264
Bit rate : 1 418 Kbps
Width : 712 pixels
Height : 382 pixels
Display aspect ratio : 1.864
Frame rate : 25.000 fps
Bits/(Pixel*Frame) : 0.209
Stream size : 1.03 GiB (76%)

Audio
Format : AC-3
Bit rate : 448 Kbps
Channel(s) : 6 channels
Stream size : 333 MiB (24%)
Uwaga! Linki nie zakodowane tylko dla zarejestrowanych użytkowników!

Nie masz konta? Zarejestruj się za darmo!
----------------
Links are not encoded only for registered users only! Plese login or register!

Użytkownik VIP

LAFFAVIP

#1 | Dodany: 16 Listopad 2011 19:34

bully

Informacje

Jeżeli chcesz skomentować artykuł musisz być zarejestrowany na stronie.