EXSite.pl - Portal ze wszystkim Mamy tutaj wszystko

NIE MASZ JESZCZE KONTA? ZAREJESTRUJ SIĘ ZA DARMO!   
Przypomnij hasło X

Żywot Briana / Life of Brian (1979) DVDRip.XviD-LikES Whiskey

Dodał: Albi84 16 Listopad 2011 19:49


Zywot Briana / Life of Brian (1979) DVDRip.XviD-LikES Whiskey


Żywot Briana / Life of Brian (1979) DVDRip.XviD-LikES Whiskey

INFO:
Polski tytuł: Żywot Briana
Oryginalny tytuł: Life of Brian
Produkcja: Wielka Brytania
Gatunek: Komedia
Data premiery: 2004-05-28 (Polska), 1979-08-17 (świat)
Reżyseria: Terry Jones
Scenariusz: Eric Idle, Terry Gilliam
Zdjęcia: Peter Biziou
Muzyka: Geoffrey Burgon, Michael Palin
Czas trwania: 93 minuty


OPIS:
Bohaterem filmu jest rówieśnik Jezusa, który urodził się - pamiętnej nocy - w Betlejem, w sąsiedniej stajence. Losy chłopca o imieniu Brian, są przewrotną paralelą losów Chrystusa. Także zostaje uznany za Mesjasza, także ko?czy na krzyżu. "Żywot Briana" jest drugim kinowym filmem grupy Monty Pythona. Tytuł roboczy filmu brzmiał "Jezus Chrystus: Żądza chwały". Postać Briana pojawiła się potem, a dzieło miało nosić nazwę "Ewangelia według św. Briana" lub "Brian z Nazaretu". Pieniądze na realizację filmu wyłożył George Harrison.

DANE TECHNICZNE:
Format : AVI
Format/Info : Audio Video Interleave
File size : 831 MiB
Duration : 1h 29mn
Overall bit rate : 1 296 Kbps
Writing application : Lavf52.57.1
Video
Format : xvid
Codec ID : xvid
Duration : 1h 29mn
Bit rate : 963 Kbps
Width : 640 pixels
Height : 352 pixels
Display aspect ratio : 16:9
Frame rate : 23.976 fps
Resolution : 24 bits
Bits/(Pixel*Frame) : 0.178
Stream size : 617 MiB (74%)
Audio #1
ID : 1
Format : MPEG Audio
Format version : Version 1
Format profile : Layer 3
Codec ID : 55
Codec ID/Hint : MP3
Duration : 1h 29mn
Bit rate mode : Constant
Bit rate : 320 Kbps
Channel(s) : 2 channels
Sampling rate : 48.0 KHz
Resolution : 16 bits
Video delay : 2s 560ms
Stream size : 205 MiB (25%)
Alignment : Aligned on interleaves
Interleave, duration : 24 ms (0.58 video frame)
Interleave, preload duration : 32 ms
Writing library : LAME3.98 (beta)



---400MB PARTY / 4 serwery na przemian / All links are interchangeable---
Uwaga! Linki nie zakodowane tylko dla zarejestrowanych użytkowników!

Nie masz konta? Zarejestruj się za darmo!
----------------
Links are not encoded only for registered users only! Plese login or register!



Uwaga! Linki nie zakodowane tylko dla zarejestrowanych użytkowników!

Nie masz konta? Zarejestruj się za darmo!
----------------
Links are not encoded only for registered users only! Plese login or register!



Uwaga! Linki nie zakodowane tylko dla zarejestrowanych użytkowników!

Nie masz konta? Zarejestruj się za darmo!
----------------
Links are not encoded only for registered users only! Plese login or register!



Uwaga! Linki nie zakodowane tylko dla zarejestrowanych użytkowników!

Nie masz konta? Zarejestruj się za darmo!
----------------
Links are not encoded only for registered users only! Plese login or register!

Użytkownik VIP

Albi84Użytkownik

#1 | Dodany: 16 Listopad 2011 19:49

Zapraszam
Użytkownik VIP

argoshenUżytkownik

#2 | Dodany: 16 Listopad 2011 20:56

Zarąbisty ten film :)
Polecam :D
Użytkownik VIP

karpinteroUżytkownik

#3 | Dodany: 16 Listopad 2011 21:13

A to jest PL??? bo nie umiem si doczytać.
Użytkownik VIP

Tomak23Użytkownik

#4 | Dodany: 7 Styczeń 2012 20:53

pl są wklejone napisy

Informacje

Jeżeli chcesz skomentować artykuł musisz być zarejestrowany na stronie.