EXSite.pl - Portal ze wszystkim Mamy tutaj wszystko

NIE MASZ JESZCZE KONTA? ZAREJESTRUJ SIĘ ZA DARMO!   
Przypomnij hasło X

Kac Vegas w Bangkoku / The Hangover Part II (2011) BRRip.720p.x264 Feel-Free

Dodał: ampatinis 19 Listopad 2011 09:59


Kac Vegas w Bangkoku / The Hangover Part II (2011) BRRip.720p.x264 Feel-Free

Kac Vegas w Bangkoku / The Hangover Part II (2011) BRRip.720p.x264 Feel-Free

Kac Vegas w Bangkoku / The Hangover Part II (2011) BRRip.720p.x264 Feel-Free
OPiS / iNFO

W kontynuacji bijącej rekordy popularności komedii Kac Vegas Phil (Bradley Cooper), Stu (Ed Helms), Alan (Zach Galifianakis) i Doug (Justin Bartha) udają się w podróż do egzotycznej Tajlandii na ślub Stu. Po niezapomnianym wieczorze kawalerskim w Las Vegas Stu nie chce ryzykować i planuje przed weselem bezpieczne i spokojne późne śniadanie. Ale życie nie zawsze układa się zgodnie z planem. To, co wydarzyło się w Vegas, przeszło już do historii, ale to, co będzie miało miejsce w Bangkoku, wydaje się po prostu niemożliwe.


Genre:Comedy
Language:English
IMDb:http://www.imdb.com/title/tt1411697/
Source:1080p.BluRay.x264-SECTOR7 Thanks!

Format : MPEG-4
Format profile : Base Media
Codec ID : isom
File size : 2.41 GiB
Duration : 1h 41mn
Overall bit rate : 3 391 Kbps

Video
ID : 1
Format : AVC
Format/Info : Advanced Video Codec
Format profile : High@L5.1
Format settings, CABAC : Yes
Format settings, ReFrames : 3 frames
Format settings, GOP : N=1
Codec ID : avc1
Codec ID/Info : Advanced Video Coding
Duration : 1h 41mn
Bit rate mode : Variable
Bit rate : 3 000 Kbps
Maximum bit rate : 17.1 Mbps
Width : 1 280 pixels
Height : 536 pixels
Display aspect ratio : 2.35:1
Frame rate mode : Constant
Frame rate : 23.976 fps
Color space : YUV
Chroma subsampling : 4:2:0
Bit depth : 8 bits
Scan type : Progressive
Bits/(Pixel*Frame) : 0.182
Stream size : 2.09 GiB (87%)
Writing library : x264

Audio
ID : 2
Format : AAC
Format/Info : Advanced Audio Codec
Format version : Version 4
Format profile : LC
Format settings, SBR : No
Codec ID : 40
Duration : 1h 41mn
Bit rate mode : Variable
Bit rate : 446 Kbps
Maximum bit rate : 575 Kbps
Channel(s) : 6 channels
Channel positions : Front: L C R, Side: L R, LFE
Sampling rate : 48.0 KHz
Stream size : 325 MiB (13%)


Kac Vegas w Bangkoku / The Hangover Part II (2011) BRRip.720p.x264 Feel-Free

Kac Vegas w Bangkoku / The Hangover Part II (2011) BRRip.720p.x264 Feel-Free Kac Vegas w Bangkoku / The Hangover Part II (2011) BRRip.720p.x264 Feel-Free

Kac Vegas w Bangkoku / The Hangover Part II (2011) BRRip.720p.x264 Feel-Free
Uwaga! Linki nie zakodowane tylko dla zarejestrowanych użytkowników!

Nie masz konta? Zarejestruj się za darmo!
----------------
Links are not encoded only for registered users only! Plese login or register!



Informacje

Jeżeli chcesz skomentować artykuł musisz być zarejestrowany na stronie.