EXSite.pl - Portal ze wszystkim Mamy tutaj wszystko

NIE MASZ JESZCZE KONTA? ZAREJESTRUJ SIĘ ZA DARMO!   
Przypomnij hasło X

Snieżna Bestia / Snow Beast (2011) DVDRip.AC3-DiVERSiTY

Dodał: RiCo26 20 Listopad 2011 18:42


Snieżna Bestia / Snow Beast (2011) DVDRip.AC3-DiVERSiTY


Snieżna Bestia / Snow Beast (2011) DVDRip.AC3-DiVERSiTY


Opis:
Jim (John Schneider), wraz z zespołem badawczym co roku wyrusza do Kanady, by obserwować żyjące tam rysie. Tym razem, w podróży towarzyszy jego zbuntowana 16-letnia córka Emmy (Danielle Chuchran). Gdy docierają na miejsce, okazuje się, że wszystkie zwierzęta zniknęły. Próbując dowiedzieć co się stało, zauważają, że coś podąża ich śladem...


Info:
PRODUKCJA: USA
GATUNEK: Dramat, Thriller, Sci-Fi
REŻYSERIA: Brian Brough
SCENARIUSZ: Brittany Wiscombe
OBSADA: John Schneider, Jason London, Danielle Chuchran


Dane Techniczne:
Genereal
Complete name                    : Snow Beast 2011 DVDrip ac3 DiVERSiTYFormat                           : AVIFormat/Info                      : Audio Video InterleaveFile size                        : 1.37 GiBDuration                         : 1h 30mnOverall bit rate                 : 2 160 KbpsSource                           : DVDREncoder                          : chris25867Sample                           : YesSubtitle                         : Romanian (.srt)
Video
Format                           : MPEG-4 VisualFormat profile                   : Advanced Simple@L5Format settings, BVOP            : YesFormat settings, QPel            : NoFormat settings, GMC             : No warppointsFormat settings, Matrix          : Default (H.263)Codec ID                         : XVIDCodec ID/Hint                    : XviDDuration                         : 1h 30mnBit rate                         : 1 704 KbpsWidth                            : 720 pixelsHeight                           : 400 pixelsDisplay aspect ratio             : 16:9Frame rate                       : 23.976 fpsColor space                      : YUVChroma subsampling               : 4:2:0Bit depth                        : 8 bitsScan type                        : ProgressiveCompression mode                 : LossyBits/(Pixel*Frame)               : 0.247Stream size                      : 1.08 GiB (79)Writing library                  : XviD 1.2.1 (UTC 2008-12-04)
Audio
Format                           : AC-3Format/Info                      : Audio Coding 3Mode extension                   : CM (complete main)Codec ID                         : 2000Duration                         : 1h 30mnBit rate mode                    : ConstantBit rate                         : 448 KbpsChannel(s)                       : 6 channelsChannel positions                : Front: L C R, Side: L R, LFESampling rate                    : 48.0 KHzBit depth                        : 16 bitsCompression mode                 : LossyStream size                      : 291 MiB (21)Alignment                        : Aligned on interleavesInterleave, duration             : 64 ms (1.53 video frames)Interleave, preload duration     : 192 ms




Download from FileSonic

Uwaga! Linki nie zakodowane tylko dla zarejestrowanych użytkowników!

Nie masz konta? Zarejestruj się za darmo!
----------------
Links are not encoded only for registered users only! Plese login or register!




Download from Fileserve

Uwaga! Linki nie zakodowane tylko dla zarejestrowanych użytkowników!

Nie masz konta? Zarejestruj się za darmo!
----------------
Links are not encoded only for registered users only! Plese login or register!



Download from Filepost

Uwaga! Linki nie zakodowane tylko dla zarejestrowanych użytkowników!

Nie masz konta? Zarejestruj się za darmo!
----------------
Links are not encoded only for registered users only! Plese login or register!



Użytkownik VIP

RiCo26VIP

#1 | Dodany: 20 Listopad 2011 18:43

belay

Informacje

Jeżeli chcesz skomentować artykuł musisz być zarejestrowany na stronie.