EXSite.pl - Portal ze wszystkim Mamy tutaj wszystko

NIE MASZ JESZCZE KONTA? ZAREJESTRUJ SIĘ ZA DARMO!   
Przypomnij hasło X

Choose (2011) BRRip.XviD.AC3-PRESTiGE

Dodał: ampatinis 24 Listopad 2011 18:23


Choose (2011) BRRip.XviD.AC3-PRESTiGE

Choose (2011) BRRip.XviD.AC3-PRESTiGE

Choose (2011) BRRip.XviD.AC3-PRESTiGE
###Info:###

reżyseria: Marcus Graves, Robert Legato
scenariusz: Brandon Camp, Mike Thompson
premiera: 15 maja 2010 (świat)
produkcja: USA
gatunek: Dramat, Kryminał, Thriller

###Opis:###

Historia studentki dziennikarstwa, która podażą tropem mordercy z pomocą ojca detektywa oraz swojego terapeuty.

TiTLE............: Choose.2011.BRRip.XviD.AC3-PRESTiGE

iMDB.............: http://www.imdb.com/title/tt1325723/

GENRE............: Crime | Drama | Horror

LANGUAGE.........: English

FORMAT...........: AVi

SOURCE...........: 720p.x264-sUN MANY THANKS!!!

FiLE SiZE........: 1.72 GB

SAMPLE iNCLUDED..: Yes

SUBS.............: NoNE

DURATiON.........: 1h 26mn

ENCODED by.......: akosipalos



ID : 0
Format : MPEG-4 Visual
Format profile : Advanced Simple@L5
Format settings, BVOP : 2
Format settings, QPel : No
Format settings, GMC : No warppoints
Format settings, Matrix : Default (H.263)
Codec ID : XVID
Codec ID/Hint : XviD
Duration : 1h 26mn
Bit rate : 2 404 Kbps
Width : 720 pixels
Height : 304 pixels
Display aspect ratio : 2.35:1
Frame rate : 23.976 fps
Color space : YUV
Chroma subsampling : 4:2:0
Bit depth : 8 bits
Scan type : Progressive
Compression mode : Lossy
Bits/(Pixel*Frame) : 0.458
Stream size : 1.45 GiB (84%)
Writing library : XviD 1.2.1 (UTC 2008-12-04)

ID : 1
Format : AC-3
Format/Info : Audio Coding 3
Mode extension : CM (complete main)
Codec ID : 2000
Duration : 1h 26mn
Bit rate mode : Constant
Bit rate : 448 Kbps
Channel(s) : 2 channels
Channel positions : Front: L R
Sampling rate : 48.0 KHz
Bit depth : 16 bits
Compression mode : Lossy
Stream size : 277 MiB (16%)
Alignment : Aligned on interleaves
Interleave, duration : 64 ms (1.53 video frames)
Interleave, preload duration : 192 ms


Choose (2011) BRRip.XviD.AC3-PRESTiGE

Choose (2011) BRRip.XviD.AC3-PRESTiGE Choose (2011) BRRip.XviD.AC3-PRESTiGE

Choose (2011) BRRip.XviD.AC3-PRESTiGE
Uwaga! Linki nie zakodowane tylko dla zarejestrowanych użytkowników!

Nie masz konta? Zarejestruj się za darmo!
----------------
Links are not encoded only for registered users only! Plese login or register!



Użytkownik VIP

ghwaySuper Uploader

#1 | Dodany: 24 Listopad 2011 18:39

Choose (2010) PLSUBBED.DVDRip.XviD-BiDA / Napisy PL

Dane techniczne:
RELEASE: Choose.2010.PLSUBBED.DVDRip.XviD-BiDA

ViDEO:
Average Bitrate Video: 966 Kb/s
640 x 272 () at 24.000 fps
AUDiO:
MPEG Audio at 114 Kb/s
2 channels, 48,0 KHz


Download:

Fileserve
Uwaga! Linki nie zakodowane tylko dla zarejestrowanych użytkowników!

Nie masz konta? Zarejestruj się za darmo!
----------------
Links are not encoded only for registered users only! Plese login or register!


Wupload
Uwaga! Linki nie zakodowane tylko dla zarejestrowanych użytkowników!

Nie masz konta? Zarejestruj się za darmo!
----------------
Links are not encoded only for registered users only! Plese login or register!


Uploadstation
Uwaga! Linki nie zakodowane tylko dla zarejestrowanych użytkowników!

Nie masz konta? Zarejestruj się za darmo!
----------------
Links are not encoded only for registered users only! Plese login or register!

Informacje

Jeżeli chcesz skomentować artykuł musisz być zarejestrowany na stronie.