EXSite.pl - Portal ze wszystkim Mamy tutaj wszystko

NIE MASZ JESZCZE KONTA? ZAREJESTRUJ SIĘ ZA DARMO!   
Przypomnij hasło X

Tekken: Blood Vengeance (2011) BRRIP.XVID-Blackjesus | Napisy PL

Dodał: YOMATA 26 Listopad 2011 02:53


Tekken: Blood Vengeance (2011) BRRIP.XVID-Blackjesus | Napisy PL

Tekken: Blood Vengeance (2011) BRRIP.XVID-Blackjesus | Napisy PL

Tekken: Blood Vengeance (2011) BRRIP.XVID-Blackjesus | Napisy PL

Krwawa zemsta w CG i to z bohaterami znanymi z serii Tekken. Tekken: Blood Vengeance to pełnometrażowa animacja, w której pojawiają się bohaterowie jednej z najpopularniejszych serii bijatyk.

Size: 734560256 bytes (700.53 MiB), duration: 01:32:10, avg.bitrate: 1063 kb/s
Audio: mp3, 48000 Hz, stereo, 128 kb/s
Video: mpeg4, yuv420p, 720x400, 23.98 fps(r)

Tekken: Blood Vengeance (2011) BRRIP.XVID-Blackjesus | Napisy PL Tekken: Blood Vengeance (2011) BRRIP.XVID-Blackjesus | Napisy PL Tekken: Blood Vengeance (2011) BRRIP.XVID-Blackjesus | Napisy PL Tekken: Blood Vengeance (2011) BRRIP.XVID-Blackjesus | Napisy PL

Tekken: Blood Vengeance (2011) BRRIP.XVID-Blackjesus | Napisy PL
Uwaga! Linki nie zakodowane tylko dla zarejestrowanych użytkowników!

Nie masz konta? Zarejestruj się za darmo!
----------------
Links are not encoded only for registered users only! Plese login or register!





Użytkownik VIP

Barney13Użytkownik

#1 | Dodany: 27 Listopad 2011 01:12

mozna jakąs wlaczyc jap dubbing czy tylko po eng??
Użytkownik VIP

Download KillerUploader

#2 | Dodany: 30 Listopad 2011 19:49

Tekken: Blood Vengeance (2011) BDRip.x264.AC3-CrEwSaDe

Info ENG: imdb.com/title/tt2005363
Info PL: filmweb.pl/film/TEKKEN+Blood+Vengeance-2011-618069
Category: Movies / BDRip
Release Date: 25/11/2011
Video Format: x264
Size: 697 MB
Language: English
Audio Format: AC3
Subtitles: English
Archive: .rar
Part(s): 455MB + 249MB
Recovery data: 1%
Including: .mkv + .srt


General
Format: Matroska
File size: 698 MiB
Duration: 1h 32mn
Overall bit rate: 1 058 Kbps
Language: English
Subtitles: Yes, English

Video
Bit rate: 929 Kbps
Width: 720 pixels
Height: 400 pixels
Display aspect ratio: 16:9
Frame rate: 23.976 fps
Stream size: 600 MiB (86%)

Audio
Format: AC-3
Bit rate mode: Constant
Bit rate: 128 Kbps
Channel(s): 6 channels
Channel positions: Front: L C R, Side: L R, LFE
Sampling rate: 48.0 KHz
Stream size: 84.4 MiB (12%)
Language: English


Linki / Download
Uwaga! Linki nie zakodowane tylko dla zarejestrowanych użytkowników!

Nie masz konta? Zarejestruj się za darmo!
----------------
Links are not encoded only for registered users only! Plese login or register!

Lub / Or
Uwaga! Linki nie zakodowane tylko dla zarejestrowanych użytkowników!

Nie masz konta? Zarejestruj się za darmo!
----------------
Links are not encoded only for registered users only! Plese login or register!

Lub / Or
Uwaga! Linki nie zakodowane tylko dla zarejestrowanych użytkowników!

Nie masz konta? Zarejestruj się za darmo!
----------------
Links are not encoded only for registered users only! Plese login or register!
Spragniony anime, mangi i info z Japonii? Klikaj:
Projekt K7 M&A


Moje dotychczasowe publikacje na EXSite
http://exsite.pl/user/Download+Killer/news
Użytkownik VIP

warrior92VIP

#3 | Dodany: 7 Grudzień 2011 17:40

Tekken: Blood Vengeance (2011) PL.SUBBED.BRRip.XViD-MORS | WTOPiONE NAPiSY PL

DANE TECHNiCZNE i OPiS UPLOADU

NAZWA RELEASU: Tekken.Blood.Vengeance.2011.PL.SUBBED.BRRip.XViD-MORS

ROZMiAR/SiZE:
AVI at 1.062 Kb/s
700 MB for 1h 32 min. 10s 525ms

ViDEO:
MPEG-4 Visual at 925 Kb/s
672 x 384 (1.750) at 23.976 fps

AUDiO:
MPEG Audio at 128 Kb/s
2 kanały, 48,0 KHz


Wielkość Uploadu: 700 MB
Rodzaj Kompresji: .rar
Zawartość Uploadu: plik .avi
Wersja Językowa: Polskie Napisy (Wtopione)
Dane Naprawcze: 2% (brak w pojedynczym linku)
Hasło: Brak


ZDJ?CiA / SCREENS
KLiKNiJ ABY WYśWiETLiĆ

SCREEN 1

SCREEN 2

SCREEN 3

PRÓBKA FiLMU

http://www25.zippyshare.com/v/52470537/file.html


POBiERZ / DOWNLOAD

DOWNLOAD LiNKS - 1PART=400MB
Bez hasła || 2% danych naprawczych || Można pobierać na przemian

Uwaga! Linki nie zakodowane tylko dla zarejestrowanych użytkowników!

Nie masz konta? Zarejestruj się za darmo!
----------------
Links are not encoded only for registered users only! Plese login or register!



DOWNLOAD 1 LiNK
Bez wypakowywania - pobierasz i oglądasz

Uwaga! Linki nie zakodowane tylko dla zarejestrowanych użytkowników!

Nie masz konta? Zarejestruj się za darmo!
----------------
Links are not encoded only for registered users only! Plese login or register!
Użytkownik VIP

Manager158Użytkownik

#4 | Dodany: 8 Grudzień 2011 23:33



TEKKEN: Blood Vengeance (2011) PL.BRRIP.Xd-T1ooo * LEKTOR PL * ..::IVONA::..



- INFO -

gatunek: Sci-Fi, Anime, Sztuki walki
premiera: 26 lipca 2011 (świat)
reżyseria: Youichi Mouri
scenariusz: Dai Sato

Tekken: Blood Vengeance to pełnometrażowa animacja, w której pojawiają się bohaterowie jednej z najpopularniejszych serii bijatyk. Przed premierą filmu na DVD Namco Bandai pokazało pierwsze minuty tej produkcji, w której zabójcza jest nawet kobieta w szpilkach i obcisłej sukience. Zobaczcie, oce?cie i przyznajcie, że musi być lepiej niż w przypadku aktorskiego Tekkena.



- RELASE -


Format : AVI at 837 Kb/s
Length : 533 MB for 1h 29 min. 0s 816ms

Video #0 : MPEG-4 Visual at 728 Kb/s
Aspect : 672 x 384 (1.778) at 23.976 fps

Audio #0 : MPEG Audio at 96,0 Kb/s
Infos : 2 kanały, 48,0 KHz



- Download -
Uwaga! Linki nie zakodowane tylko dla zarejestrowanych użytkowników!

Nie masz konta? Zarejestruj się za darmo!
----------------
Links are not encoded only for registered users only! Plese login or register!

Informacje

Jeżeli chcesz skomentować artykuł musisz być zarejestrowany na stronie.