EXSite.pl - Portal ze wszystkim Mamy tutaj wszystko

NIE MASZ JESZCZE KONTA? ZAREJESTRUJ SIĘ ZA DARMO!   
Przypomnij hasło X

[FS] Iron Man (2008) BRRip Lektor PL 1080p

Dodał: marco0073 27 Listopad 2011 19:14


Iron Man (2008) LEKTOR PL

FULL HD 1080p BRRip


[FS] Iron Man (2008) BRRip Lektor PL 1080p

Opis:
"Iron Man" to historia miliardera, przemysłowca i genialnego wynalazcy Tony’ego Starka (Robert Downey Jr.), szefa Stark Industries, głównego dostawcy broni dla rządu USA. Beztroski styl życia Tony’ego zmienia się na zawsze, kiedy po testach przeprowadzanych z nową bronią, jego konwój zostaje zaatakowany, a on sam porwany przez rebeliantów. Ranny od pocisku, który utkwił w pobliżu serca, Tony zostaje zmuszony do skonstruowania potężnej broni dla Razy (Faran Tahir), tajemniczego przywódcy rebeliantów. Nie zważając jednak na żądania porywaczy, Tony wykorzystuje swój intelekt i geniusz, aby skonstruować zbroję, która utrzyma go przy życiu i pomoże w ucieczce. Po powrocie do Ameryki, Tony stara się dojść do ładu ze swoją przeszłością i przysięga, że jego firma Stark Industries będzie się teraz rozwijać w zupełnie nowym kierunku. Mimo oporu Obadiaha Stane (Jeff Bridges), swojej prawej ręki i jednego z szefów firmy, który przejął nad nią rządy podczas jego nieobecności, Tony spędza całe dnie i noce w warsztacie, pracując nad konstrukcją zaawansowanej technologicznie zbroi, która zapewni mu nadludzką siłę i ochroni przed atakami.


DANE:
General
Unique ID                      : 189052180821301161501014770171752711001 (0x8E3A2027F279A538A6F4BCB386EB8359)
Complete name                  : D:\F I L M  HD\Iron Man FULL HD\Iron.Man.2008.PL.BluRay.1080p.x264-LTN.mkv
Format                         : Matroska
Format version                 : Version 2
File size                      : 12.7 GiB
Duration                       : 2h 6mn
Overall bit rate               : 14.4 Mbps
Movie name                     : Iron Man (2008)
Encoded date                   : UTC 2011-02-27 11:20:27
Writing application            : mkvmerge v4.5.0 ('Speed of Light') built on Feb  1 2011 02:10:32
Writing library                : libebml v1.2.0 + libmatroska v1.1.0
Attachment                     : Yes / Yes / Yes

Video
ID                             : 1
Format                         : AVC
Format/Info                    : Advanced Video Codec
Format profile                 : High L4.1
Format settings, CABAC         : Yes
Format settings, ReFrames      : 5 frames
Muxing mode                    : Header stripping
Codec ID                       : V_MPEG4/ISO/AVC
Duration                       : 2h 6mn
Bit rate                       : 12.5 Mbps
Width                          : 1 920 pixels
Height                         : 800 pixels
Display aspect ratio           : 2.40:1
Frame rate                     : 23.976 fps
Color space                    : YUV
Chroma subsampling             : 4:2:0
Bit depth                      : 8 bits
Scan type                      : Progressive
Bits/(Pixel*Frame)             : 0.339
Stream size                    : 10.7 GiB (84%)
Writing library                : x264 core 64 r983M b4b6483
Language                       : English

Audio #1
ID                             : 2
Format                         : AC-3
Format/Info                    : Audio Coding 3
Mode extension                 : CM (complete main)
Muxing mode                    : Header stripping
Codec ID                       : A_AC3
Duration                       : 2h 6mn
Bit rate mode                  : Constant
Bit rate                       : 448 Kbps
Channel(s)                     : 6 channels
Channel positions              : Front: L C R, Side: L R, LFE
Sampling rate                  : 48.0 KHz
Bit depth                      : 16 bits
Compression mode               : Lossy
Stream size                    : 404 MiB (3%)
Language                       : Polish

Audio #2
ID                             : 3
Format                         : DTS
Format/Info                    : Digital Theater Systems
Muxing mode                    : Header stripping
Codec ID                       : A_DTS
Duration                       : 2h 6mn
Bit rate mode                  : Constant
Bit rate                       : 1 510 Kbps
Channel(s)                     : 6 channels
Channel positions              : Front: L C R, Side: L R, LFE
Sampling rate                  : 48.0 KHz
Bit depth                      : 24 bits
Compression mode               : Lossy
Stream size                    : 1.33 GiB (10%)
Language                       : English

Text #1
ID                             : 4
Format                         : ASS
Codec ID                       : S_TEXT/ASS
Codec ID/Info                  : Advanced Sub Station Alpha
Compression mode               : Lossless
Language                       : Polish

Text #2
ID                             : 5
Format                         : ASS
Codec ID                       : S_TEXT/ASS
Codec ID/Info                  : Advanced Sub Station Alpha
Compression mode               : Lossless
Language                       : English


DANE NAPRAWCZE 10% !!

PARTY PO 190MB / OSTATNI PART 137MB

[FS] Iron Man (2008) BRRip Lektor PL 1080p

Uwaga! Linki nie zakodowane tylko dla zarejestrowanych użytkowników!

Nie masz konta? Zarejestruj się za darmo!
----------------
Links are not encoded only for registered users only! Plese login or register!

Użytkownik VIP

joseph0025VIP Uploader

#1 | Dodany: 27 Listopad 2011 19:24

lol
:)
Użytkownik VIP

ghwaySuper Uploader

#2 | Dodany: 27 Listopad 2011 19:30

loler
Użytkownik VIP

kupczanUżytkownik

#3 | Dodany: 27 Listopad 2011 19:35

fucking joke??
http://rapids.pl/52217

Informacje

Jeżeli chcesz skomentować artykuł musisz być zarejestrowany na stronie.