EXSite.pl - Portal ze wszystkim Mamy tutaj wszystko

NIE MASZ JESZCZE KONTA? ZAREJESTRUJ SIĘ ZA DARMO!   
Przypomnij hasło X

Warrior (2011) 720p.BRRip.x264.Feel-Free

Dodał: ampatinis 10 Grudzień 2011 18:49


Warrior (2011) 720p.BRRip.x264.Feel-Free

Warrior (2011) 720p.BRRip.x264.Feel-Free

Warrior (2011) 720p.BRRip.x264.Feel-Free
Produkcja: USA
Gatunek: Dramat, Akcja, Sportowy
Premiera: 02.12.2011 - Polska, 09.09.2011 - świat
Czas trwania: 127 min.
Ocena: IMDB - 8.3/10 (8701), Filmweb - 8.6/10 (50)

OPIS: Nawiedzany tragiczną przeszłością były żołnierz marine, Tony Conlin, powraca do rodzinnego Pittsburgha. Zabiegając o wsparcie ojca Paddy'ego, byłego alkoholika i trenera, postanawia wziąć udział w turnieju mieszanych sztuk walki.



Format : MPEG-4
Format profile : Base Media
Codec ID : isom
File size : 3.28 GiB
Duration : 2h 20mn
Overall bit rate : 3 343 Kbps

Video
ID : 1
Format : AVC
Format/Info : Advanced Video Codec
Format profile : High@L5.1
Format settings, CABAC : Yes
Format settings, ReFrames : 3 frames
Codec ID : avc1
Codec ID/Info : Advanced Video Coding
Duration : 2h 20mn
Bit rate mode : Variable
Bit rate : 3 000 Kbps
Maximum bit rate : 16.2 Mbps
Width : 1 280 pixels
Height : 536 pixels
Display aspect ratio : 2.35:1
Frame rate mode : Constant
Frame rate : 23.976 fps
Color space : YUV
Chroma subsampling : 4:2:0
Bit depth : 8 bits
Scan type : Progressive
Bits/(Pixel*Frame) : 0.182
Stream size : 2.84 GiB (87%)
Writing library : x264

Audio
ID : 2
Format : AAC
Format/Info : Advanced Audio Codec
Format version : Version 4
Format profile : LC
Format settings, SBR : No
Codec ID : 40
Duration : 2h 20mn
Bit rate mode : Variable
Bit rate : 443 Kbps
Maximum bit rate : 534 Kbps
Channel(s) : 6 channels
Channel positions : Front: L C R, Side: L R, LFE
Sampling rate : 48.0 KHz
Stream size : 445 MiB (13%)


Warrior (2011) 720p.BRRip.x264.Feel-Free

Warrior (2011) 720p.BRRip.x264.Feel-Free Warrior (2011) 720p.BRRip.x264.Feel-Free

Warrior (2011) 720p.BRRip.x264.Feel-Free
Uwaga! Linki nie zakodowane tylko dla zarejestrowanych użytkowników!

Nie masz konta? Zarejestruj się za darmo!
----------------
Links are not encoded only for registered users only! Plese login or register!



Użytkownik VIP

szybki_2004Użytkownik

#1 | Dodany: 11 Grudzień 2011 14:51

Warrior (2011) PLSUBBED.DVDScr.XviD-BiDA / Dopasowane Wtopione Napisy PL


OPIS:
Nawiedzany tragiczną przeszłością były żołnierz marine, Tony Conlin (Tom Hardy), powraca do rodzinnego Pittsburgha. Zabiegając o wsparcie ojca Paddy'ego (Nick Nolte), byłego alkoholika i trenera, postanawia wziąć udział w turnieju mieszanych sztuk walki (MMA). Są to zawody wysokiego ryzyka, których nagrodą jest największa suma pieniędzy w dziejach sportu. Podczas gdy Tony przeciera sobie szlak do wygranej, jego brat Brendan (Joel Edgerton), były wojownik MMA, a obecnie nauczyciel w szkole, ledwo wiąże koniec z ko?cem. Gdy Brendan zostaje zawieszony w pracy - powraca na amatorski ring by zapewnić byt rodzinie. Niestety, mimo, że minęło kilka lat, jego stosunki z Tonym i ojcem są nadal napięte. Nieoczekiwanie, drogi dwojga braci krzyżują się na ringu...


DANE TECHNICZNE:
Format : AVI at 713 Kbps
Length : 711 MiB for 2h 19mn 34s 199ms

Video #0 : MPEG-4 Visual at 588 Kbps
Aspect : 720 x 304 (2.368) at 23.976 fps

Audio #0 : MPEG Audio at 112 Kbps
Infos : 2 channels, 48.0 KHz



http://www.filesonic.com/file/4089103824/Warrior.2011.PLSUBBED.DVDScr.XviD-BiDA.avi

Informacje

Jeżeli chcesz skomentować artykuł musisz być zarejestrowany na stronie.