EXSite.pl - Portal ze wszystkim Mamy tutaj wszystko

NIE MASZ JESZCZE KONTA? ZAREJESTRUJ SIĘ ZA DARMO!   
Przypomnij hasło X

11.11.11 (2011) 720p.BRRip.x264.Feel-Free

Dodał: ampatinis 13 Grudzień 2011 19:10


11.11.11 (2011) 720p.BRRip.x264.Feel-Free

11.11.11 (2011) 720p.BRRip.x264.Feel-Free

11.11.11 (2011) 720p.BRRip.x264.Feel-Free

gatunek: Horror
premiera: 11 listopada 2011 (świat)
reżyseria: Darren Lynn Bousman
scenariusz: Darren Lynn Bousman

Po tragicznej śmierci żony i dziecka, słynny ameryka?ski pisarz Joseph Crone (Timothy Gibbs), udaje się do Barcelony, by pogodzić się z bratem i umierającym ojcem. Niespodziewanie, jego życie przybiera zupełnie inny kierunek, gdy zaczyna doświadczać szeregu dziwnych wydarze?, mających związek z liczbą 11. Ciekawość zmieniająca się w obsesję, prowadzi Josepha do odkrycia przerażającej prawdy i ujawnienia apokaliptycznej daty 11-11-11...

Format : MPEG-4
Format profile : Base Media
Codec ID : isom
File size : 2.19 GiB
Duration : 1h 32mn
Overall bit rate : 3 373 Kbps

Video
ID : 1
Format : AVC
Format/Info : Advanced Video Codec
Format profile : High@L5.1
Format settings, CABAC : Yes
Format settings, ReFrames : 3 frames
Codec ID : avc1
Codec ID/Info : Advanced Video Coding
Duration : 1h 32mn
Bit rate mode : Variable
Bit rate : 3 000 Kbps
Maximum bit rate : 22.5 Mbps
Width : 1 280 pixels
Height : 528 pixels
Display aspect ratio : 2.40:1
Frame rate mode : Constant
Frame rate : 25.000 fps
Color space : YUV
Chroma subsampling : 4:2:0
Bit depth : 8 bits
Scan type : Progressive
Bits/(Pixel*Frame) : 0.178
Stream size : 1.90 GiB (87%)
Writing library : x264

Audio
ID : 2
Format : AAC
Format/Info : Advanced Audio Codec
Format version : Version 4
Format profile : LC
Format settings, SBR : No
Codec ID : 40
Duration : 1h 32mn
Bit rate mode : Variable
Bit rate : 443 Kbps
Maximum bit rate : 545 Kbps
Channel(s) : 6 channels
Channel positions : Front: L C R, Side: L R, LFE
Sampling rate : 48.0 KHz
Stream size : 294 MiB (13%)



11.11.11 (2011) 720p.BRRip.x264.Feel-Free
Uwaga! Linki nie zakodowane tylko dla zarejestrowanych użytkowników!

Nie masz konta? Zarejestruj się za darmo!
----------------
Links are not encoded only for registered users only! Plese login or register!



Informacje

Jeżeli chcesz skomentować artykuł musisz być zarejestrowany na stronie.