EXSite.pl - Portal ze wszystkim Mamy tutaj wszystko

NIE MASZ JESZCZE KONTA? ZAREJESTRUJ SIĘ ZA DARMO!   
Przypomnij hasło X

Jedz, módl się, kochaj / Eat Pray Love (2010) PL.DVDRiP.XViD-faldino |Lektor PL

Dodał: faldino12 13 Grudzień 2011 21:29


Jedz, módl się, kochaj / Eat Pray Love (2010) PL.DVDRiP.XViD-faldino |Lektor PL

Jedz, módl się, kochaj / Eat Pray Love (2010) PL.DVDRiP.XViD-faldino |Lektor PL

reżyseria: Ryan Murphy
scenariusz: Ryan Murphy,Jennifer Salt
premiera: 1 października 2010 (Polska) 2010-10-01 13 sierpnia 2010 (świat) 2010-08-13
produkcja: USA
gatunek: Melodramat

Opis:
Po kilku latach rozczarowa? i ze złamanym sercem, 35-letnia Elizabeth Gilbert (Julia Roberts) podejmuje ryzyko i wyrusza w roczną podróż, podczas której pragnie odkryć samą siebie. Elizabeth planuje odwiedzić trzy miejsca oraz skupić się na poszukiwaniu przyjemności, poświęcenia i równowagi. We Włoszech odkrywa sztukę przyjemności poprzez jedzenie i przyjaź?. W Indiach, udaje się do pewnego aszramu, gdzie studiuje sztukę duchowego poświęcenia i dzięki nieoczekiwanej pomocy nieznajomych, odnajduje w sobie spokój. Na Bali, jako ulubienica szamana, uczy się sztuki równowagi między ziemską radością a boską transcendencją... i niespodziewanie odnajduje prawdziwą miłość.


Dane Techniczne:


Format: AVI 1631 Kb/s
Rozmiar: 2 GB 2h 19min. 42s 119ms
Video: MPEG-4 Visual 1490 Kb/s
Rozdzielczosc: 640 x 360 (1.778) 25.000 fps
Audio: MPEG Audio 128 Kb/s
Kanaly: 2 kanaly, 44.1 KHz


Opis Uploadu:
* Rozmiar - 1,6GB
* Archiwum - bez hasła
* Zawartość - plik .avi
* Rodzaj kompresji - .rar
* Wersja językowa - PL
* Dane naprawcze - 10%

Uwaga! Linki nie zakodowane tylko dla zarejestrowanych użytkowników!

Nie masz konta? Zarejestruj się za darmo!
----------------
Links are not encoded only for registered users only! Plese login or register!


Użytkownik VIP

tomeczek2219Użytkownik

#1 | Dodany: 24 Luty 2012 13:40

Jedz, módl się, kochaj (2010) DVDRip XviD PL


Dane Techniczne:

Format : AVI
Format/Info : Audio Video Interleave
File size : 706 MiB
Duration : 2h 25mn
Overall bit rate : 678 Kbps
Writing application : VirtualDubMod 1.5.10.2 (build 2540/release)
Writing library : VirtualDubMod build 2540/release

Video
ID : 0
Format : MPEG-4 Visual
Format profile : Advanced Simple@L5
Format settings, BVOP : 2
Format settings, QPel : No
Format settings, GMC : No warppoints
Format settings, Matrix : Default (H.263)
Muxing mode : Packed bitstream
Codec ID : XVID
Codec ID/Hint : XviD
Duration : 2h 25mn
Bit rate : 541 Kbps
Width : 640 pixels
Height : 344 pixels
Display aspect ratio : 1.860
Frame rate : 23.976 fps
Color space : YUV
Chroma subsampling : 4:2:0
Bit depth : 8 bits
Scan type : Progressive
Compression mode : Lossy
Bits/(Pixel*Frame) : 0.102
Stream size : 563 MiB (80%)
Writing library : XviD 1.2.1 (UTC 2008-12-04)

Audio
ID : 1
Format : MPEG Audio
Format version : Version 1
Format profile : Layer 3
Mode : Joint stereo
Mode extension : MS Stereo
Codec ID : 55
Codec ID/Hint : MP3
Duration : 2h 25mn
Bit rate mode : Constant
Bit rate : 128 Kbps
Channel(s) : 2 channels
Sampling rate : 44.1 KHz
Compression mode : Lossy
Stream size : 133 MiB (19%)
Alignment : Split accross interleaves
Interleave, duration : 42 ms (1.00 video frame)
Interleave, preload duration : 500 ms
Writing library : LAME


Turbobit

http://turbobit.net/73nkznkr7e5g.html
smile
Użytkownik VIP

ex123Użytkownik

#2 | Dodany: 6 Kwiecień 2013 21:03

Prośba o nowe linki.

Informacje

Jeżeli chcesz skomentować artykuł musisz być zarejestrowany na stronie.