EXSite.pl - Portal ze wszystkim Mamy tutaj wszystko

NIE MASZ JESZCZE KONTA? ZAREJESTRUJ SIĘ ZA DARMO!   
Przypomnij hasło X

Chętni na kasę / Takers (2010) PL.DVDRip.XviD-FRUGO / Lektor PL + x264

Dodał: ShaQ72 25 Grudzień 2011 21:15



Chętni na kasę / Takers (2010) PL.DVDRip.XviD-FRUGO / Lektor PL


Chętni na kasę / Takers (2010) PL.DVDRip.XviD-FRUGO / Lektor PL + x264


OPiS / iNFO

Produkcja: USA
Gatunek: Kryminał, Thriller, Akcja
Czas trwania: 102 minuty
Premiera: 20.08.2010 - świat
Reżyseria: John Luessenhop
Scenariusz: Peter Allen, Gabriel Casseus

Film opowiada historię detektywa Jacka Wellesa. Jest on na tropie pewnej grupy, która chce obrabować bank. Jednak przestępcom udaje się zgarnąć 20 milionów dolarów i uciec nie zostawiając żadnych śladów. Od tej pory Jack zrobi wszystko, żeby odszukać pieniądze...


DANE TECHNiCZNE / RELEASE .NFO

Release: Chetni.Na.Kase.2010.PL.DVDRip.XviD-FRUGO

Format / Rozmiar ...........: AVI / 700 MB
Czas trwania ...............: 1h 42min

Video Kodek / Bitrate ......: XviD / 812 kbps
Rozdzielczość / FPS ........: 640x272 / 25.000 fps

Audio Kodek / Bitrate ......: MP3 / 128 kbps
Kanały / Częstotliwość .....: 2 ch / 48 kHz

Język ...: Polski Lektor  /  Napisy ...: Brak



POBiERZ / DOWNLOAD

MOŻNA POBiERAĆ NAPRZEMiAN / ALL LiNKS ARE iNTERCHANGEABLE

DOWNLOAD LiNK'S - 400MB PART'S:
no password | single extraction | 1% recovery data


Uwaga! Linki nie zakodowane tylko dla zarejestrowanych użytkowników!

Nie masz konta? Zarejestruj się za darmo!
----------------
Links are not encoded only for registered users only! Plese login or register!



DOWNLOAD - ONLY 1 LiNK:
no password | no extraction


Uwaga! Linki nie zakodowane tylko dla zarejestrowanych użytkowników!

Nie masz konta? Zarejestruj się za darmo!
----------------
Links are not encoded only for registered users only! Plese login or register!



Mój upload || My upload
Bez hasła || No password
1% danych naprawczych || 1% recovery data
Można pobierać na przemian || All links are interchangeable





WERSJA x264


DANE TECHNiCZNE / RELEASE .NFO

Format / Rozmiar ...........: AVI / 376 MB
Czas trwania ...............: 1h 42min

Video Kodek / Bitrate ......: XviD / 435 kbps
Rozdzielczość / FPS ........: 640x272 / 25.000 fps

Audio Kodek / Bitrate ......: MP3 / 64 kbps
Kanały / Częstotliwość .....: 2 ch / 48 kHz



POBiERZ / DOWNLOAD


DOWNLOAD - ONLY 1 LiNK:
no password | no extraction


Uwaga! Linki nie zakodowane tylko dla zarejestrowanych użytkowników!

Nie masz konta? Zarejestruj się za darmo!
----------------
Links are not encoded only for registered users only! Plese login or register!



Mój upload || My upload
Bez hasła || No password
1% danych naprawczych || 1% recovery data
Można pobierać na przemian || All links are interchangeable

Użytkownik VIP

ShaQ72Trial Uploader

#1 | Dodany: 14 Grudzień 2011 19:11


Chętni na kasę / Takers (2010) PL.PDTV.XViD-PBWT / Lektor PL


DANE TECHNiCZNE / RELEASE .NFO

Release: Chetni.Na.Kase.2010.PL.PDTV.XviD.PBWT

Format / Rozmiar ...........: AVI / 968 MB
Czas trwania ...............: 1h 37min

Video Kodek / Bitrate ......: XviD / 863 kbps
Rozdzielczość / FPS ........: 624x352 / 25.000 fps

Audio Kodek / Bitrate ......: MP3 / 128 kbps
Kanały / Częstotliwość .....: 2 ch / 48 kHz

Język ...: Polski Lektor  /  Napisy ...: Brak



POBiERZ / DOWNLOAD

MOŻNA POBiERAĆ NAPRZEMiAN / ALL LiNKS ARE iNTERCHANGEABLE

DOWNLOAD LiNK'S - 400MB PART'S:
no password | single extraction | 1% recovery data


Uwaga! Linki nie zakodowane tylko dla zarejestrowanych użytkowników!

Nie masz konta? Zarejestruj się za darmo!
----------------
Links are not encoded only for registered users only! Plese login or register!



DOWNLOAD - ONLY 1 LiNK:
no password | no extraction


Uwaga! Linki nie zakodowane tylko dla zarejestrowanych użytkowników!

Nie masz konta? Zarejestruj się za darmo!
----------------
Links are not encoded only for registered users only! Plese login or register!



Mój upload || My upload
Bez hasła || No password
1% danych naprawczych || 1% recovery data
Można pobierać na przemian || All links are interchangeable
Użytkownik VIP

kudysUżytkownik

#2 | Dodany: 14 Grudzień 2011 20:09

Chętni na kasę / Takers (2010) | DVDRIP - LEKTOR PL

[SPOILER]
General
Complete name : Chetni.na.kase.2010.PL.avi
Format : AVI
Format/Info : Audio Video Interleave
File size : 701 MiB
Duration : 1h 42mn
Overall bit rate : 953 Kbps
Writing application : VirtualDubMod 1.5.10.2 (build 2540/release)
Writing library : VirtualDubMod build 2540/release

Video
ID : 0
Format : MPEG-4 Visual
Format profile : Advanced Simple@L5
Format settings, BVOP : 1
Format settings, QPel : No
Format settings, GMC : No warppoints
Format settings, Matrix : Default (H.263)
Codec ID : XVID
Codec ID/Hint : XviD
Duration : 1h 42mn
Bit rate : 811 Kbps
Width : 640 pixels
Height : 272 pixels
Display aspect ratio : 2.35:1
Frame rate : 25.000 fps
Color space : YUV
Chroma subsampling : 4:2:0
Bit depth : 8 bits
Scan type : Progressive
Compression mode : Lossy
Bits/(Pixel*Frame) : 0.186
Stream size : 596 MiB (85%)
Writing library : XviD 1.2.1 (UTC 2008-12-04)

Audio
ID : 1
Format : MPEG Audio
Format version : Version 1
Format profile : Layer 3
Mode : Joint stereo
Mode extension : MS Stereo
Codec ID : 55
Codec ID/Hint : MP3
Duration : 1h 42mn
Bit rate mode : Variable
Bit rate : 128 Kbps
Channel(s) : 2 channels
Sampling rate : 48.0 KHz
Compression mode : Lossy
Stream size : 95.0 MiB (14%)
Alignment : Aligned on interleaves
Interleave, duration : 24 ms (0.60 video frame)
Interleave, preload duration : 142 ms
Writing library : LAME3.90.
Encoding settings : -m j -V 4 -q 2 -lowpass 17.6 --abr 128
[/SPOILER]

Uwaga! Linki nie zakodowane tylko dla zarejestrowanych użytkowników!

Nie masz konta? Zarejestruj się za darmo!
----------------
Links are not encoded only for registered users only! Plese login or register!
Użytkownik VIP

kudysUżytkownik

#3 | Dodany: 27 Grudzień 2011 13:45

Chętni na kasę / Takers (2010) | DVDRIP - LEKTOR PL



Uwaga! Linki nie zakodowane tylko dla zarejestrowanych użytkowników!

Nie masz konta? Zarejestruj się za darmo!
----------------
Links are not encoded only for registered users only! Plese login or register!

Informacje

Jeżeli chcesz skomentować artykuł musisz być zarejestrowany na stronie.