EXSite.pl - Portal ze wszystkim Mamy tutaj wszystko

NIE MASZ JESZCZE KONTA? ZAREJESTRUJ SIĘ ZA DARMO!   
Przypomnij hasło X

Grindhouse: Death Proof / Planet Terror (2007) PL.720p.BluRay.x264-Destiny / POLSKI LEKTOR

Dodał: CrashRed 1 Styczeń 2012 18:25


Grindhouse: Death Proof / Death Proof (2007) PL.720p.BluRay.x264-Destiny / POLSKI LEKTOR

Grindhouse: Death Proof / Planet Terror  (2007) PL.720p.BluRay.x264-Destiny / POLSKI LEKTOR

Grindhouse: Death Proof / Planet Terror  (2007) PL.720p.BluRay.x264-Destiny / POLSKI LEKTOR
http://www.filmweb.pl/Grindhouse.Death.Proof

czas trwania: 1 godz. 54 min.
gatunek: Thriller, Akcja
premiera: 20 lipca 2007 (Polska) 2007-07-20 22 maja 2007 (świat) 2007-05-22
reżyseria: Quentin Tarantino
scenariusz: Quentin Tarantino

Dla najpopularniejszej didżejki w Austin, Jungle Julii (Sydney Tamiia Poitier), oraz jej dwóch przyjaciółek Shanny (Jordan Ladd) i Arlene (Vanessa Ferlito) noc jest najlepszą okazją, by porządnie się zabawić. Cała trójka wyrusza więc z Guero do teksaskiego Chili Parlor. Ich wyprawa nie pozostaje niezauważona? W ślad za dziewczynami potajemnie udaje się Stuntman Mike (Kurt Russell), facet, który lubi seks, alkohol i ostrą jazdę, ale przede wszystkim kocha zabijać? Zwłaszcza młode, seksowne
dziewczyny, na które działa jak magnez. On i jego diaboliczny samochód są postrachem każdego miasta, w którym się pojawiają.


Grindhouse: Death Proof / Planet Terror  (2007) PL.720p.BluRay.x264-Destiny / POLSKI LEKTOR
Grindhouse: Death Proof / Planet Terror  (2007) PL.720p.BluRay.x264-Destiny / POLSKI LEKTOR


Format : Matroska
File size : 5.72 GiB
Duration : 1h 53mn
Overall bit rate : 7 207 Kbps
Video
Format/Info : Advanced Video Codec
Format profile : High@L4.1
Duration : 1h 53mn
Bit rate : 6 754 Kbps
Width : 1 280 pixels
Height : 544 pixels
Display aspect ratio : 2.35:1
Frame rate : 23.976 fpsB (92%)
Title : Death Proof
Writing library : x264 core 65 r1042M 5df2a71
Language : English
Audio
Format : AC-3
Duration : 1h 53mn
Bit rate mode : Constant
Bit rate : 448 Kbps
Channel(s) : 6 channels
Stream size : 364 MiB (6%)
Title : Crash-Polski



Grindhouse: Death Proof / Planet Terror  (2007) PL.720p.BluRay.x264-Destiny / POLSKI LEKTOR
Uwaga! Linki nie zakodowane tylko dla zarejestrowanych użytkowników!

Nie masz konta? Zarejestruj się za darmo!
----------------
Links are not encoded only for registered users only! Plese login or register!







Grindhouse: Planet Terror / Planet Terror (2007) PL.720p.BluRay.x264-HQL / POLSKI LEKTOR

Grindhouse: Death Proof / Planet Terror  (2007) PL.720p.BluRay.x264-Destiny / POLSKI LEKTOR

http://www.filmweb.pl/Grindhouse.Planet.Terror

czas trwania: 1 godz. 45 min.
gatunek: Horror, Akcja
premiera: 12 października 2007 (Polska) 2007-10-12 21 czerwca 2007 (świat) 2007-06-21
reżyseria: Robert Rodriguez
scenariusz: Robert Rodriguez

Małże?stwo lekarzy, William i Dakota Block (Josh Brolin i Marley Shelton) są świadkami pustoszącej ich miasteczko niepokojącej choroby, której objawami są gangrenowate zmiany ciała oraz puste spojrzenie w oczach ofiar? Tymczasem na poboczu drogi Cherry (Rose McGowan), tancerka go-go, zostaje zaatakowana przez chorego na ową dziwną choroę. Na skutek ataku dziewczyna traci nogę. świadkiem całego zdarzenia jest Wray (Freddy Rodriguez), jej były partner. Ktoś inny na jej miejscu, załamałby się, ale
nie Cherry. Jak się okaże, dziewczyna nie zata?czyła jeszcze swego ostatniego numeru? Razem z Wray?em staje na czele drużyny próbującej opanować hordy żywych trupów i odnaleźć ostatni bezpieczny kąt na Planecie Terroru.

Format : Matroska
File size : 4.23 GiB
Duration : 1h 45mn
Overall bit rate : 5 738 Kbps
Video
Format/Info : Advanced Video Codec
Format profile : High@L4.1
Duration : 1h 45mn
Bit rate : 5 287 Kbps
Width : 1 280 pixels
Height : 720 pixels
Display aspect ratio : 16:9
Frame rate : 23.976 fps
Stream size : 3.82 GiB (90%)
Writing library : x264 core 65 r1040M 1591275
Language : English
Audio
Format : AC-3
Duration : 1h 45mn
Bit rate mode : Constant
Bit rate : 448 Kbps
Channel(s) : 6 channels
Stream size : 338 MiB (8%)
Title : HQL
Language : Polish

Uwaga! Linki nie zakodowane tylko dla zarejestrowanych użytkowników!

Nie masz konta? Zarejestruj się za darmo!
----------------
Links are not encoded only for registered users only! Plese login or register!


Użytkownik VIP

CrashRedVIP

#1 | Dodany: 17 Grudzień 2011 18:19

ok

Informacje

Jeżeli chcesz skomentować artykuł musisz być zarejestrowany na stronie.