EXSite.pl - Portal ze wszystkim Mamy tutaj wszystko

NIE MASZ JESZCZE KONTA? ZAREJESTRUJ SIĘ ZA DARMO!   
Przypomnij hasło X

Inside Job (2010) PL.DVDRip.XVID.AC3-LikES BEST + RMVB + x264

Dodał: Albi84 16 Styczeń 2012 20:50


Inside Job (2010) PL.DVDRip.XVID.AC3-LikES BEST

Lektor PL

Inside Job (2010) PL.DVDRip.XVID.AC3-LikES BEST + RMVB + x264

INFO:
Reżyseria: Charles Ferguson
Scenariusz: Chad Beck, Adam Bolt
Gatunek: Dokumentalny
Kraj: USA
Rok produkcji: 2010
Czas trwania: 104 min.

OPIS:
Film nagrodzony Oscarem, to pierwszy materiał filmowy dokumentujący szokującą prawdę o kulisach kryzysu ekonomicznego z 2008 roku. Globalna zapaść na rynkach finansowych, która przyniosła straty w wysokości ponad 20 bilionów dolarów, doprowadziła w rezultacie do utraty pracy i domów przez? miliony ludzi. Dzięki zakrojonym na szeroką skalę wnikliwym działaniom badawczym i wywiadom przeprowadzonym z głównymi graczami rynków finansowych, politykami i dziennikarzami, film pokazuje rozwój spekulacyjnych operacji finansowych i stojącego za nimi przemysłu finansowego. Rzuca również światło na wzajemne relacje i mechanizmy, które doprowadziły do skorumpowania działa? politycznych, regulacyjnych i świata nauki. Narratorem filmu jest laureat Oscara Matt Damon.

DANE TECHNICZNE:
Format : AVI
Format/Info : Audio Video Interleave
File size : 700 MiB
Duration : 1h 44mn
Overall bit rate : 940 Kbps
Writing application : VirtualDubMod 1.5.4.1 (build 2178/release)
Writing library : VirtualDubMod build 2178/release
Video #0
ID : 0
Format : MPEG-4 Visual
Format profile : AdvancedSimple@L5
Format settings, BVOP : Yes
Format settings, QPel : No
Format settings, GMC : No warppoints
Format settings, Matrix : Custom
Codec ID : XVID
Codec ID/Hint : XviD
Duration : 1h 44mn
Bit rate : 485 Kbps
Width : 720 pixels
Height : 304 pixels
Display aspect ratio : 2.35:1
Frame rate : 25.000 fps
Resolution : 24 bits
Colorimetry : 4:2:0
Scan type : Progressive
Bits/(Pixel*Frame) : 0.089
Stream size : 361 MiB (52%)
Writing library : XviD 58
Audio #1
ID : 1
Format : AC-3
Format/Info : Audio Coding 3
Codec ID : 2000
Duration : 1h 44mn
Bit rate mode : Constant
Bit rate : 448 Kbps
Channel(s) : 6 channels
Channel positions : Front: L C R, Surround: L R, LFE
Sampling rate : 48.0 KHz
Stream size : 334 MiB (48%)
Alignment : Split accross interleaves
Interleave, duration : 96 ms (2.40 video frames)
Interleave, preload duration : 96 ms
Language : Polish



---400MB PARTY / 3 serwery na przemian / All links are interchangeable---
Uwaga! Linki nie zakodowane tylko dla zarejestrowanych użytkowników!

Nie masz konta? Zarejestruj się za darmo!
----------------
Links are not encoded only for registered users only! Plese login or register!



Uwaga! Linki nie zakodowane tylko dla zarejestrowanych użytkowników!

Nie masz konta? Zarejestruj się za darmo!
----------------
Links are not encoded only for registered users only! Plese login or register!



Uwaga! Linki nie zakodowane tylko dla zarejestrowanych użytkowników!

Nie masz konta? Zarejestruj się za darmo!
----------------
Links are not encoded only for registered users only! Plese login or register!


------------------------------

RMVB

DANE TECHNICZNE:
Format            : RealMedia at 448 Kb/s
Length            : 339 MB for 1h 44 min. 10s 839ms

Video #0          : RealVideo 4 at 384 Kb/s
Aspect            : 720 x 304 (2.368) at 25.000 fps

Audio #0          : Cooker at 64,1 Kb/s
Infos             : 2 kanały, 44,1 KHz



Uwaga! Linki nie zakodowane tylko dla zarejestrowanych użytkowników!

Nie masz konta? Zarejestruj się za darmo!
----------------
Links are not encoded only for registered users only! Plese login or register!


--------------------------

x264



DANE TECHNICZNE:
Format            : AVI at 400 Kb/s
Length            : 298 MB for 1h 44 min. 10s 920ms

Video #0          : AVC at 291 Kb/s
Aspect            : 640 x 270 (2.370) at 25.000 fps

Audio #0          : MPEG Audio at 96,0 Kb/s
Infos             : 2 kanały, 48,0 KHz



Uwaga! Linki nie zakodowane tylko dla zarejestrowanych użytkowników!

Nie masz konta? Zarejestruj się za darmo!
----------------
Links are not encoded only for registered users only! Plese login or register!



Użytkownik VIP

Albi84Użytkownik

#1 | Dodany: 20 Grudzień 2011 18:12

Zapraszam

Informacje

Jeżeli chcesz skomentować artykuł musisz być zarejestrowany na stronie.