EXSite.pl - Portal ze wszystkim Mamy tutaj wszystko

NIE MASZ JESZCZE KONTA? ZAREJESTRUJ SIĘ ZA DARMO!   
Przypomnij hasło X

Dr Jekyll i pan Hyde / Dr. Jekyll And Mr. Hyde (2008) PL.DVDRip.XVID-LikES Whiskey + RMVB + x264

Dodał: Albi84 15 Styczeń 2012 16:36


Dr Jekyll i pan Hyde / Dr. Jekyll And Mr. Hyde (2008) PL.DVDRip.XVID-LikES Whiskey

Lektor PL

Dr Jekyll i pan Hyde / Dr. Jekyll And Mr. Hyde (2008) PL.DVDRip.XVID-LikES Whiskey + RMVB + x264

INFO:
PRODUKCJA: USA
GATUNEK: Horror, Thriller
CZAS TRWANIA: 89 minut
DATA PREMIERY: 06.01.2008 - świat
REŻYSERIA: Paolo Barzman
SCENARIUSZ: Paul B. Margolis

OPIS:
Doktor Jekyll jest znanym i cieszącym się szacunkiem naukowcem, który przeprowadza badania dotyczące ludzkiej natury. Eksperyment, który prowadzi na samym sobie wymyka się jednak spod kontroli, co powoduje, że zła osobowość doktora przejmuje nad nim władzę.

DANE TECHNICZNE:
Format : AVI
Format/Info : Audio Video Interleave
File size : 715 MiB
Duration : 1h 25mn
Overall bit rate : 1 169 Kbps
Writing application : Lavf52.57.1
Video #0
ID : 0
Format : MPEG-4 Visual
Format profile : Simple@L1
Format settings, BVOP : No
Format settings, QPel : No
Format settings, GMC : No warppoints
Format settings, Matrix : Default (H.263)
Codec ID : FMP4
Duration : 1h 25mn
Bit rate : 1 028 Kbps
Width : 720 pixels
Height : 480 pixels
Display aspect ratio : 1.500
Frame rate : 25.000 fps
Standard : NTSC
Resolution : 24 bits
Colorimetry : 4:2:0
Scan type : Progressive
Bits/(Pixel*Frame) : 0.119
Stream size : 629 MiB (88%)
Writing library : Lavc52.62.0
Audio #1
ID : 1
Format : MPEG Audio
Format version : Version 1
Format profile : Layer 3
Codec ID : 55
Codec ID/Hint : MP3
Duration : 1h 25mn
Bit rate mode : Constant
Bit rate : 128 Kbps
Channel(s) : 2 channels
Sampling rate : 48.0 KHz
Resolution : 16 bits
Stream size : 78.2 MiB (11%)
Alignment : Aligned on interleaves
Interleave, duration : 24 ms (0.60 video frame)
Interleave, preload duration : 24 ms



---400MB PARTY / 3 serwery na przemian / All links are interchangeable---
Uwaga! Linki nie zakodowane tylko dla zarejestrowanych użytkowników!

Nie masz konta? Zarejestruj się za darmo!
----------------
Links are not encoded only for registered users only! Plese login or register!



Uwaga! Linki nie zakodowane tylko dla zarejestrowanych użytkowników!

Nie masz konta? Zarejestruj się za darmo!
----------------
Links are not encoded only for registered users only! Plese login or register!



Uwaga! Linki nie zakodowane tylko dla zarejestrowanych użytkowników!

Nie masz konta? Zarejestruj się za darmo!
----------------
Links are not encoded only for registered users only! Plese login or register!


------------------------

RMVB

DANE TECHNICZNE:
Format            : RealMedia at 449 Kb/s
Length            : 279 MB for 1h 25 min. 27s 765ms

Video #0          : RealVideo 4 at 385 Kb/s
Aspect            : 720 x 480 (1.500) at 25.000 fps

Audio #0          : Cooker at 64,1 Kb/s
Infos             : 2 kanały, 44,1 KHz


Uwaga! Linki nie zakodowane tylko dla zarejestrowanych użytkowników!

Nie masz konta? Zarejestruj się za darmo!
----------------
Links are not encoded only for registered users only! Plese login or register!


------------------

x264



DANE TECHNICZNE:
Format            : AVI at 488 Kb/s
Length            : 298 MB for 1h 25 min. 27s 840ms

Video #0          : AVC at 379 Kb/s
Aspect            : 640 x 426 (1.502) at 25.000 fps

Audio #0          : MPEG Audio at 96,0 Kb/s
Infos             : 2 kanały, 48,0 KHz


Uwaga! Linki nie zakodowane tylko dla zarejestrowanych użytkowników!

Nie masz konta? Zarejestruj się za darmo!
----------------
Links are not encoded only for registered users only! Plese login or register!




Użytkownik VIP

Albi84Użytkownik

#1 | Dodany: 20 Grudzień 2011 18:23

Zapraszam
Użytkownik VIP

bieerytTrial Uploader

#2 | Dodany: 1 Listopad 2013 12:52

Dr. Jekyll i Pan Hyde / Dr. Jekyll And Mr. Hyde (2008) PL.DVDRip.XViD-J25 / Lektor PL

Opis uploadu:

[VIDEO]
Codec: XviD
Resolution: 640 x 480 (1.33:1)
Bitrate: 1 007 kb/s
Frame Rate: 25.000 fps

[AUDIO]
Codec: MP3
Bitrate: 128 kb/s (2 chnls)
Frequency Sample: 48000Hz

Wielkość uploadu: 700 MB
Rodzaj kompresji: brak
Zawartość uploadu: .avi
Wersja językowa: Lektor PL
Dane naprawcze: 0%
Hasło: brak hasła



Download:


Uwaga! Linki nie zakodowane tylko dla zarejestrowanych użytkowników!

Nie masz konta? Zarejestruj się za darmo!
----------------
Links are not encoded only for registered users only! Plese login or register!

Uwaga! Linki nie zakodowane tylko dla zarejestrowanych użytkowników!

Nie masz konta? Zarejestruj się za darmo!
----------------
Links are not encoded only for registered users only! Plese login or register!


Uwaga! Linki nie zakodowane tylko dla zarejestrowanych użytkowników!

Nie masz konta? Zarejestruj się za darmo!
----------------
Links are not encoded only for registered users only! Plese login or register!

Informacje

Jeżeli chcesz skomentować artykuł musisz być zarejestrowany na stronie.