EXSite.pl - Portal ze wszystkim Mamy tutaj wszystko

NIE MASZ JESZCZE KONTA? ZAREJESTRUJ SIĘ ZA DARMO!   
Przypomnij hasło X

Frontieres / Frontier(s) (2007) PL.DVDRip.XVID-LikES Whiskey + RMVB + x264

Dodał: Albi84 15 Styczeń 2012 18:34


Frontieres / Frontier(s) (2007) PL.DVDRip.XVID-LikES Whiskey

Lektor PL

Frontieres / Frontier(s) (2007) PL.DVDRip.XVID-LikES Whiskey + RMVB + x264

INFO:
produkcja: Francja, Szwajcaria
gatunek: Thriller, Horror
data premiery: 2007-07-01 (świat)
czas trwania: 108 +
reżyseria Xavier Gens
scenariusz Xavier Gens
zdjęcia Laurent Bares
muzyka Jean-Pierre Taieb

OPIS:
Kandydat skrajnej prawicy wygrywa drugą turę wyborów prezydenckich we Francji. Grupa młodych rabusiów wkrada się do tajnej siedziby, znajdującej się na starym górniczym odludziu. Zbyt późno przekonają się, że zamieszkana jest przez neo-nazistów, kanibali.

DANE TECHNICZNE:
Format : AVI
Format/Info : Audio Video Interleave
Format profile : OpenDML
File size : 1.12 GiB
Duration : 4h 36mn
Overall bit rate : 579 Kbps
Writing application : Lavf52.57.1
Video #0
ID : 0
Format : MPEG-4 Visual
Format profile : Simple@L1
Format settings, BVOP : No
Format settings, QPel : No
Format settings, GMC : No warppoints
Format settings, Matrix : Default (H.263)
Codec ID : FMP4
Duration : 4h 36mn
Bit rate : 525 Kbps
Width : 720 pixels
Height : 480 pixels
Display aspect ratio : 1.500
Frame rate : 25.000 fps
Standard : NTSC
Resolution : 24 bits
Colorimetry : 4:2:0
Scan type : Progressive
Bits/(Pixel*Frame) : 0.061
Stream size : 1.01 GiB (91%)
Writing library : Lavc52.62.0
Audio #1
ID : 1
Format : MPEG Audio
Format version : Version 1
Format profile : Layer 3
Codec ID : 55
Codec ID/Hint : MP3
Duration : 1h 43mn
Bit rate mode : Constant
Bit rate : 128 Kbps
Channel(s) : 2 channels
Sampling rate : 48.0 KHz
Resolution : 16 bits
Stream size : 95.0 MiB (8%)
Alignment : Aligned on interleaves
Interleave, duration : 24 ms (0.60 video frame)
Interleave, preload duration : 24 ms



---400MB PARTY / 3 serwery na przemian / All links are interchangeable---
Uwaga! Linki nie zakodowane tylko dla zarejestrowanych użytkowników!

Nie masz konta? Zarejestruj się za darmo!
----------------
Links are not encoded only for registered users only! Plese login or register!



Uwaga! Linki nie zakodowane tylko dla zarejestrowanych użytkowników!

Nie masz konta? Zarejestruj się za darmo!
----------------
Links are not encoded only for registered users only! Plese login or register!



Uwaga! Linki nie zakodowane tylko dla zarejestrowanych użytkowników!

Nie masz konta? Zarejestruj się za darmo!
----------------
Links are not encoded only for registered users only! Plese login or register!


-----------------------

RMVB

DANE TECHNICZNE:
Format            : RealMedia at 471 Kb/s
Length            : 358 MB for 1h 43 min. 43s 919ms

Video #0          : RealVideo 4 at 407 Kb/s
Aspect            : 720 x 480 (1.500) at 25.000 fps

Audio #0          : Cooker at 64,1 Kb/s
Infos             : 2 kanały, 44,1 KHz



Uwaga! Linki nie zakodowane tylko dla zarejestrowanych użytkowników!

Nie masz konta? Zarejestruj się za darmo!
----------------
Links are not encoded only for registered users only! Plese login or register!


------------------------

x264



DANE TECHNICZNE:
Format            : AVI at 401 Kb/s
Length            : 298 MB for 1h 43 min. 44s 0ms

Video #0          : AVC at 292 Kb/s
Aspect            : 640 x 426 (1.502) at 25.000 fps

Audio #0          : MPEG Audio at 96,0 Kb/s
Infos             : 2 kanały, 48,0 KHz



Uwaga! Linki nie zakodowane tylko dla zarejestrowanych użytkowników!

Nie masz konta? Zarejestruj się za darmo!
----------------
Links are not encoded only for registered users only! Plese login or register!




Użytkownik VIP

Albi84Użytkownik

#1 | Dodany: 21 Grudzień 2011 15:47

Zapraszam
Użytkownik VIP

inf3kktedUżytkownik

#2 | Dodany: 11 Styczeń 2012 14:09

ok więcej takich filmów prosze
Użytkownik VIP

thc1234Użytkownik

#3 | Dodany: 15 Styczeń 2012 19:03

kiedyś oglądałem i może być :)

Informacje

Jeżeli chcesz skomentować artykuł musisz być zarejestrowany na stronie.