EXSite.pl - Portal ze wszystkim Mamy tutaj wszystko

NIE MASZ JESZCZE KONTA? ZAREJESTRUJ SIĘ ZA DARMO!   
Przypomnij hasło X

Kopalnie króla Salomona / King Solomon's Mines (1985) PL.DVDRip-LikES Whiskey + RMVB + x264

Dodał: Albi84 17 Styczeń 2012 19:47


Kopalnie króla Salomona / King Solomon's Mines (1985) PL.DVDRip-LikES Whiskey

Lektor PL

Kopalnie króla Salomona / King Solomon's Mines (1985) PL.DVDRip-LikES Whiskey + RMVB + x264

INFO:
Polski tytuł: Kopalnie Króla Salomona
Oryginalny tytuł: King Solomon's Mines
Produkcja: USA
Gatunek: Komedia, Przygodowy, Akcja
Data premiery: 1985-11-22 (świat)
Reżyseria: J. Lee Thompson
Scenariusz: James R. Silke, Gene Quintano
Zdjęcia: ?lex Phillips Jr.
Muzyka: Jerry Goldsmith
Na podstawie: powieści H. Rider Haggarda
Czas trwania: 100 minut

OPIS:
Allan Quatermain, łowca przygód zostaje namówiony przez Jesse Huston, by wyruszył z nią do afryki i pomógł znaleźć jej jej ojca. Wkrótce ich przygoda się rozpoczyna, a wszystko okazuje się być inne niż miało być.

DANE TECHNICZNE:
Format : AVI
Format/Info : Audio Video Interleave
File size : 988 MiB
Duration : 1h 35mn
Overall bit rate : 1 441 Kbps
Writing application : Lavf52.57.1
Video #0
ID : 0
Format : MPEG-4 Visual
Format profile : Simple@L1
Format settings, BVOP : No
Format settings, QPel : No
Format settings, GMC : No warppoints
Format settings, Matrix : Default (H.263)
Codec ID : FMP4
Duration : 1h 35mn
Bit rate : 1 300 Kbps
Width : 720 pixels
Height : 480 pixels
Display aspect ratio : 1.500
Frame rate : 25.000 fps
Standard : NTSC
Resolution : 24 bits
Colorimetry : 4:2:0
Scan type : Progressive
Bits/(Pixel*Frame) : 0.150
Stream size : 891 MiB (90%)
Writing library : Lavc52.62.0
Audio #1
ID : 1
Format : MPEG Audio
Format version : Version 1
Format profile : Layer 3
Codec ID : 55
Codec ID/Hint : MP3
Duration : 1h 35mn
Bit rate mode : Constant
Bit rate : 128 Kbps
Channel(s) : 2 channels
Sampling rate : 48.0 KHz
Resolution : 16 bits
Stream size : 87.8 MiB (9%)
Alignment : Aligned on interleaves
Interleave, duration : 24 ms (0.60 video frame)
Writing library : LAME3.98.



---400MB PARTY / 3 serwery na przemian / All links are interchangeable---
Uwaga! Linki nie zakodowane tylko dla zarejestrowanych użytkowników!

Nie masz konta? Zarejestruj się za darmo!
----------------
Links are not encoded only for registered users only! Plese login or register!



Uwaga! Linki nie zakodowane tylko dla zarejestrowanych użytkowników!

Nie masz konta? Zarejestruj się za darmo!
----------------
Links are not encoded only for registered users only! Plese login or register!



Uwaga! Linki nie zakodowane tylko dla zarejestrowanych użytkowników!

Nie masz konta? Zarejestruj się za darmo!
----------------
Links are not encoded only for registered users only! Plese login or register!


-----------------------

RMVB

DANE TECHNICZNE:
Format            : RealMedia at 766 Kb/s
Length            : 540 MB for 1h 35 min. 52s 680ms

Video #0          : RealVideo 4 at 702 Kb/s
Aspect            : 720 x 480 (1.500) at 25.000 fps

Audio #0          : Cooker at 64,1 Kb/s
Infos             : 2 kanały, 44,1 KHz


Uwaga! Linki nie zakodowane tylko dla zarejestrowanych użytkowników!

Nie masz konta? Zarejestruj się za darmo!
----------------
Links are not encoded only for registered users only! Plese login or register!


---------------------------------

x264



DANE TECHNICZNE:
Format            : AVI at 435 Kb/s
Length            : 298 MB for 1h 35 min. 52s 720ms

Video #0          : AVC at 326 Kb/s
Aspect            : 640 x 426 (1.502) at 25.000 fps

Audio #0          : MPEG Audio at 96,0 Kb/s
Infos             : 2 kanały, 48,0 KHz


Uwaga! Linki nie zakodowane tylko dla zarejestrowanych użytkowników!

Nie masz konta? Zarejestruj się za darmo!
----------------
Links are not encoded only for registered users only! Plese login or register!




Użytkownik VIP

Albi84Użytkownik

#1 | Dodany: 23 Grudzień 2011 12:37

Zapraszam
Użytkownik VIP

hulkkUżytkownik

#2 | Dodany: 25 Grudzień 2011 12:08

Kopalnie króla Salomona / King Solomon's Mines (1985) DVDRip Lektor PL




cd1
General : King.Solomons.Mines.CD1.2004.SE.PL.DVDRip.XViD-LLG.avi
Format : AVI at 1.157 Kb/s
Length : 699 MB for 1h 24 min. 27s 520ms
Video #0 : MPEG-4 Visual at 763 Kb/s
Aspect : 576 x 432 (1.333) at 25.000 fps
Audio #0 : AC-3 at 384 Kb/s
Infos : 6 kanałów, 48,0 KHz
cd2
General : King.Solomons.Mines.CD2.2004.SE.PL.DVDRip.XViD-LLG.avi
Format : AVI at 1.157 Kb/s
Length : 699 MB for 1h 24 min. 27s 0ms
Video #0 : MPEG-4 Visual at 764 Kb/s
Aspect : 576 x 432 (1.333) at 25.000 fps
Audio #0 : AC-3 at 384 Kb/s
Infos : 6 kanałów, 48,0 KHz





Waga: 699+699 MB
Kompresja: brak
Zawartosc uploadu: plik .avi
Wersja jezykowa: Lektor PL


FileSonic

Uwaga! Linki nie zakodowane tylko dla zarejestrowanych użytkowników!

Nie masz konta? Zarejestruj się za darmo!
----------------
Links are not encoded only for registered users only! Plese login or register!



Filejungle

Uwaga! Linki nie zakodowane tylko dla zarejestrowanych użytkowników!

Nie masz konta? Zarejestruj się za darmo!
----------------
Links are not encoded only for registered users only! Plese login or register!

Użytkownik VIP

djgutiUżytkownik

#3 | Dodany: 13 Styczeń 2012 16:25

Można prosić w formacie DVD
Użytkownik VIP

ToXoneUżytkownik

#4 | Dodany: 19 Styczeń 2012 19:51

Wrzuta od Albi84 beznadziejna. Jakiś dziwny obraz i co pewien czas pojawia się napis jakiejś strony z torentami.Nie polecam.

Informacje

Jeżeli chcesz skomentować artykuł musisz być zarejestrowany na stronie.