EXSite.pl - Portal ze wszystkim Mamy tutaj wszystko

NIE MASZ JESZCZE KONTA? ZAREJESTRUJ SIĘ ZA DARMO!   
Przypomnij hasło X

Oczy Anioła / Angel Eyes (2001) PL.DVDRip-LikES Whiskey + RMVB + x264

Dodał: Albi84 17 Styczeń 2012 21:03


Oczy Anioła / Angel Eyes (2001) PL.DVDRip-LikES Whiskey

Lektor PL

Oczy Anioła / Angel Eyes (2001) PL.DVDRip-LikES Whiskey + RMVB + x264

INFO:
Polski tytuł: Oczy Anioła
Oryginalny tytuł: Angel Eyes
Produkcja: USA
Gatunek: Obyczajowy, Dramat, Sensacyjny
Data premiery: 2001-11-16 (Polska), 2001-05-15 (świat)
Reżyseria: Luis Mandoki
Scenariusz: Gerald Di Pego
Zdjęcia: Dennis Davenport, Piotr Soboci?ski
Muzyka: Marco Beltrami
Czas trwania: 102 min.

OPIS:
Pewnej nocy, jak zwykle zresztą, policjantka Sharon zasadza się na podejrzanego. Omal nie ginie w tragicznych okolicznościach, ale tajemniczy mężczyzna, Catch, ratują ją z opresji. Tajemniczy nieznajomy twierdzi, iż jest jej Aniołem Stróżem......

DANE TECHNICZNE:
Format : AVI
Format/Info : Audio Video Interleave
File size : 1 014 MiB
Duration : 1h 38mn
Overall bit rate : 1 440 Kbps
Writing application : Lavf52.57.1
Video #0
ID : 0
Format : MPEG-4 Visual
Format profile : Simple@L1
Format settings, BVOP : No
Format settings, QPel : No
Format settings, GMC : No warppoints
Format settings, Matrix : Default (H.263)
Codec ID : FMP4
Duration : 1h 38mn
Bit rate : 1 299 Kbps
Width : 720 pixels
Height : 480 pixels
Display aspect ratio : 1.500
Frame rate : 25.000 fps
Standard : NTSC
Resolution : 24 bits
Colorimetry : 4:2:0
Scan type : Progressive
Bits/(Pixel*Frame) : 0.150
Stream size : 915 MiB (90%)
Writing library : Lavc52.62.0
Audio #1
ID : 1
Format : MPEG Audio
Format version : Version 1
Format profile : Layer 3
Codec ID : 55
Codec ID/Hint : MP3
Duration : 1h 38mn
Bit rate mode : Constant
Bit rate : 128 Kbps
Channel(s) : 2 channels
Sampling rate : 48.0 KHz
Resolution : 16 bits
Stream size : 90.1 MiB (9%)
Alignment : Aligned on interleaves
Interleave, duration : 24 ms (0.60 video frame)
Interleave, preload duration : 24 ms



---400MB PARTY / 3 serwery na przemian / All links are interchangeable---
Uwaga! Linki nie zakodowane tylko dla zarejestrowanych użytkowników!

Nie masz konta? Zarejestruj się za darmo!
----------------
Links are not encoded only for registered users only! Plese login or register!



Uwaga! Linki nie zakodowane tylko dla zarejestrowanych użytkowników!

Nie masz konta? Zarejestruj się za darmo!
----------------
Links are not encoded only for registered users only! Plese login or register!



Uwaga! Linki nie zakodowane tylko dla zarejestrowanych użytkowników!

Nie masz konta? Zarejestruj się za darmo!
----------------
Links are not encoded only for registered users only! Plese login or register!


------------------------

RMVB

DANE TECHNICZNE:
Format            : RealMedia at 449 Kb/s
Length            : 323 MB for 1h 38 min. 27s 919ms

Video #0          : RealVideo 4 at 384 Kb/s
Aspect            : 720 x 480 (1.500) at 25.000 fps

Audio #0          : Cooker at 64,1 Kb/s
Infos             : 2 kanały, 44,1 KHz


Uwaga! Linki nie zakodowane tylko dla zarejestrowanych użytkowników!

Nie masz konta? Zarejestruj się za darmo!
----------------
Links are not encoded only for registered users only! Plese login or register!


---------------------------

x264


DANE TECHNICZNE:
Format            : AVI at 422 Kb/s
Length            : 297 MB for 1h 38 min. 27s 960ms

Video #0          : AVC at 313 Kb/s
Aspect            : 640 x 426 (1.502) at 25.000 fps

Audio #0          : MPEG Audio at 96,0 Kb/s
Infos             : 2 kanały, 48,0 KHz


Uwaga! Linki nie zakodowane tylko dla zarejestrowanych użytkowników!

Nie masz konta? Zarejestruj się za darmo!
----------------
Links are not encoded only for registered users only! Plese login or register!




Użytkownik VIP

Albi84Użytkownik

#1 | Dodany: 23 Grudzień 2011 12:46

Zapraszam
Użytkownik VIP

gaudiVIP

#2 | Dodany: 24 Grudzień 2011 00:12

ok

Informacje

Jeżeli chcesz skomentować artykuł musisz być zarejestrowany na stronie.