EXSite.pl - Portal ze wszystkim Mamy tutaj wszystko

NIE MASZ JESZCZE KONTA? ZAREJESTRUJ SIĘ ZA DARMO!   
Przypomnij hasło X

Szkoła zgorszenia / Assassination of a High School President (2008) PL.DVDRip-LikES Whiskey + RMVB + x264

Dodał: Albi84 18 Styczeń 2012 19:47


Szkoła zgorszenia / Assassination of a High School President (2008) PL.DVDRip-LikES Whiskey

Lektor PL

Szkoła zgorszenia / Assassination of a High School President (2008) PL.DVDRip-LikES Whiskey + RMVB + x264

INFO:
Produkcja: USA
Gatunek: Komedia
Data premiery: 2008-01-17 (świat)
Reżyseria: Brett Simon
Scenariusz: Tim Calpin , Kevin Jakubowski
Zdjęcia: M. David Mullen
Muzyka: Daniele Luppi
Czas trwania: 93 min.

OPIS:
Poniżany przez wszystkich reporter szkolnej gazetki (Reese Thompson) zostaje podpuszczony przez najpopularniejszą uczennicę katolickiej szkoły średniej (Mischa Barton) do rozwiązania zagadki kradzieży odpowiedzi do egzaminów ko?cowych. Chłopak odkrywa, że w spisek zamieszane są najpopularniejsze osoby w szkole, której dyrektorem jest dziwaczny weteran Pustynnej Burzy w osobie samego Bruce`a Willisa.

DANE TECHNICZNE:
Format : AVI
Format/Info : Audio Video Interleave
File size : 727 MiB
Duration : 1h 29mn
Overall bit rate : 1 139 Kbps
Writing application : Lavf52.57.1
Video #0
ID : 0
Format : MPEG-4 Visual
Format profile : Simple@L1
Format settings, BVOP : No
Format settings, QPel : No
Format settings, GMC : No warppoints
Format settings, Matrix : Default (H.263)
Codec ID : FMP4
Duration : 1h 29mn
Bit rate : 998 Kbps
Width : 720 pixels
Height : 480 pixels
Display aspect ratio : 1.500
Frame rate : 25.000 fps
Standard : NTSC
Resolution : 24 bits
Colorimetry : 4:2:0
Scan type : Progressive
Bits/(Pixel*Frame) : 0.116
Stream size : 638 MiB (88%)
Writing library : Lavc52.62.0
Audio #1
ID : 1
Format : MPEG Audio
Format version : Version 1
Format profile : Layer 3
Codec ID : 55
Codec ID/Hint : MP3
Duration : 1h 29mn
Bit rate mode : Constant
Bit rate : 128 Kbps
Channel(s) : 2 channels
Sampling rate : 48.0 KHz
Resolution : 16 bits
Stream size : 81.7 MiB (11%)
Alignment : Aligned on interleaves
Interleave, duration : 24 ms (0.60 video frame)
Interleave, preload duration : 24 ms
Writing library : LAME3.98.2



---400MB PARTY / 3 serwery na przemian / All links are interchangeable---
Uwaga! Linki nie zakodowane tylko dla zarejestrowanych użytkowników!

Nie masz konta? Zarejestruj się za darmo!
----------------
Links are not encoded only for registered users only! Plese login or register!



Uwaga! Linki nie zakodowane tylko dla zarejestrowanych użytkowników!

Nie masz konta? Zarejestruj się za darmo!
----------------
Links are not encoded only for registered users only! Plese login or register!



Uwaga! Linki nie zakodowane tylko dla zarejestrowanych użytkowników!

Nie masz konta? Zarejestruj się za darmo!
----------------
Links are not encoded only for registered users only! Plese login or register!


-----------------------

RMVB

DANE TECHNICZNE:
Format            : RealMedia at 447 Kb/s
Length            : 291 MB for 1h 29 min. 15s 959ms

Video #0          : RealVideo 4 at 383 Kb/s
Aspect            : 720 x 480 (1.500) at 25.000 fps

Audio #0          : Cooker at 64,1 Kb/s
Infos             : 2 kanały, 44,1 KHz


Uwaga! Linki nie zakodowane tylko dla zarejestrowanych użytkowników!

Nie masz konta? Zarejestruj się za darmo!
----------------
Links are not encoded only for registered users only! Plese login or register!


--------------------------------

x264


DANE TECHNICZNE:
Format            : AVI at 466 Kb/s
Length            : 297 MB for 1h 29 min. 16s 40ms

Video #0          : AVC at 357 Kb/s
Aspect            : 640 x 426 (1.502) at 25.000 fps

Audio #0          : MPEG Audio at 96,0 Kb/s
Infos             : 2 kanały, 48,0 KHz


Uwaga! Linki nie zakodowane tylko dla zarejestrowanych użytkowników!

Nie masz konta? Zarejestruj się za darmo!
----------------
Links are not encoded only for registered users only! Plese login or register!




Użytkownik VIP

Albi84Użytkownik

#1 | Dodany: 23 Grudzień 2011 12:53

Zapraszam
Użytkownik VIP

tajson49Użytkownik

#2 | Dodany: 23 Grudzień 2011 13:03

świetny film
Użytkownik VIP

karwinson1991Użytkownik

#3 | Dodany: 4 Styczeń 2012 17:29

spoko wstawka :) polecam
Użytkownik VIP

kartaczVIP Uploader

#4 | Dodany: 15 Maj 2012 10:02


RIP INFO:
Assassination.Of.A.High.School.President.2008.PL.DVDRip.XviD-ER
Video: 640 x 352, XviD, 997 kbps
Audio: MP3, 128 kbps, 2 kanały
Język: Polski Lektor
Rozmiar: 700 MB
Rodzaj kompresji: .rar
Zawartość uploadu: plik .avi
Dane naprawcze: 5 %


W partach, można pobierać naprzemiennie:

Uwaga! Linki nie zakodowane tylko dla zarejestrowanych użytkowników!

Nie masz konta? Zarejestruj się za darmo!
----------------
Links are not encoded only for registered users only! Plese login or register!


Pojedy?czy link:

Uwaga! Linki nie zakodowane tylko dla zarejestrowanych użytkowników!

Nie masz konta? Zarejestruj się za darmo!
----------------
Links are not encoded only for registered users only! Plese login or register!

Informacje

Jeżeli chcesz skomentować artykuł musisz być zarejestrowany na stronie.