EXSite.pl - Portal ze wszystkim Mamy tutaj wszystko

NIE MASZ JESZCZE KONTA? ZAREJESTRUJ SIĘ ZA DARMO!   
Przypomnij hasło X

Nic śmiesznego (1995) PL.DVDRip-LikES Whiskey + RMVB + x264

Dodał: Albi84 17 Styczeń 2012 21:13


Nic śmiesznego (1995) PL.DVDRip-LikES Whiskey

Polski film

Nic śmiesznego (1995) PL.DVDRip-LikES Whiskey + RMVB + x264

INFO:
produkcja: Polska
gatunek: Dramat, Komedia
data premiery: 1996-01-01 (Polska)
od lat: 12
czas trwania: 95
reżyseria Marek Koterski
scenariusz Marek Koterski
zdjęcia Bogdan Stachurski
muzyka Bernard Kawka

OPIS:
Bohater filmu ubierany jest w prosektorium do pogrzebu. Ubieracze rozpoznają w nim znanego reżysera filmów erotycznych. Z karteczki na palcu nogi odczytują nazwisko: to Adam Miauczy?ski, zredukowany przed trzema laty filmowiec. "Tfu. Nie spotkało mnie w życiu nic śmiesznego" - podsumowuje nieboszczyk w monologu wewnętrznym przeżyte 40 lat. I zaczyna wspominać wszystkie dawne, niedawne i współczesne zdarzenia, które były dla niego smutne, pechowe i nieszczęsne...

DANE TECHNICZNE:
Format : AVI
Format/Info : Audio Video Interleave
File size : 939 MiB
Duration : 1h 31mn
Overall bit rate : 1 437 Kbps
Writing application : Lavf52.57.1
Video #0
ID : 0
Format : MPEG-4 Visual
Format profile : Simple@L1
Format settings, BVOP : No
Format settings, QPel : No
Format settings, GMC : No warppoints
Format settings, Matrix : Default (H.263)
Codec ID : FMP4
Duration : 1h 31mn
Bit rate : 1 296 Kbps
Width : 720 pixels
Height : 480 pixels
Display aspect ratio : 1.500
Frame rate : 25.000 fps
Standard : NTSC
Resolution : 24 bits
Colorimetry : 4:2:0
Scan type : Progressive
Bits/(Pixel*Frame) : 0.150
Stream size : 847 MiB (90%)
Writing library : Lavc52.62.0
Audio #1
ID : 1
Format : MPEG Audio
Format version : Version 1
Format profile : Layer 3
Codec ID : 55
Codec ID/Hint : MP3
Duration : 1h 31mn
Bit rate mode : Constant
Bit rate : 128 Kbps
Channel(s) : 2 channels
Sampling rate : 48.0 KHz
Resolution : 16 bits
Stream size : 83.6 MiB (9%)
Alignment : Aligned on interleaves
Interleave, duration : 24 ms (0.60 video frame)
Interleave, preload duration : 24 ms



---400MB PARTY / 3 serwery na przemian / All links are interchangeable---
Uwaga! Linki nie zakodowane tylko dla zarejestrowanych użytkowników!

Nie masz konta? Zarejestruj się za darmo!
----------------
Links are not encoded only for registered users only! Plese login or register!



Uwaga! Linki nie zakodowane tylko dla zarejestrowanych użytkowników!

Nie masz konta? Zarejestruj się za darmo!
----------------
Links are not encoded only for registered users only! Plese login or register!



Uwaga! Linki nie zakodowane tylko dla zarejestrowanych użytkowników!

Nie masz konta? Zarejestruj się za darmo!
----------------
Links are not encoded only for registered users only! Plese login or register!



----------------------

RMVB

DANE TECHNICZNE:
Format            : RealMedia at 450 Kb/s
Length            : 299 MB for 1h 31 min. 19s 821ms

Video #0          : RealVideo 4 at 386 Kb/s
Aspect            : 720 x 480 (1.500) at 25.000 fps

Audio #0          : Cooker at 64,1 Kb/s
Infos             : 2 kanały, 44,1 KHz




Uwaga! Linki nie zakodowane tylko dla zarejestrowanych użytkowników!

Nie masz konta? Zarejestruj się za darmo!
----------------
Links are not encoded only for registered users only! Plese login or register!


-----------------------------

x264




DANE TECHNICZNE:
Format            : AVI at 456 Kb/s
Length            : 298 MB for 1h 31 min. 19s 0ms

Video #0          : AVC at 347 Kb/s
Aspect            : 640 x 426 (1.502) at 25.000 fps

Audio #0          : MPEG Audio at 96,0 Kb/s
Infos             : 2 kanały, 48,0 KHz




Uwaga! Linki nie zakodowane tylko dla zarejestrowanych użytkowników!

Nie masz konta? Zarejestruj się za darmo!
----------------
Links are not encoded only for registered users only! Plese login or register!



Użytkownik VIP

Albi84Użytkownik

#1 | Dodany: 23 Grudzień 2011 14:09

Zapraszam

Informacje

Jeżeli chcesz skomentować artykuł musisz być zarejestrowany na stronie.