EXSite.pl - Portal ze wszystkim Mamy tutaj wszystko

NIE MASZ JESZCZE KONTA? ZAREJESTRUJ SIĘ ZA DARMO!   
Przypomnij hasło X

Złodziej z Bagdadu / The Thief of Bagdad (1940) DVDRip.x264-INFERNO

Dodał: dixiluk 29 Grudzień 2011 13:20


Złodziej z Bagdadu / The Thief of Bagdad (1940) DVDRip.x264-INFERNO
Złodziej z Bagdadu / The Thief of Bagdad (1940) DVDRip.x264-INFERNO

Info:

Czas trwania: 1 godz. 46 min
Gatunek: Familijny, Fantasy, Przygodowy
Premiera: 5 grudnia 1940
Rezyser: Ludwig Berger
Scenariusz:

Waga: 450.723 MB + Dane Naprawcze w partach po 400mb

Złodziej z Bagdadu / The Thief of Bagdad (1940) DVDRip.x264-INFERNO


Książę Ahmad jest prawowitym królem Bagdadu, ale został oślepiony i wypędzony jak żebrak. Pojmany wcześniej przez nikczemnego, Wielkiego Wezyra Jaffara zostaje wtrącony do lochu, gdzie spotyka Abu, najlepszego złodzieja w całym Bagdadzie. Wspólnie uciekają i rozpoczynają serię przygód wplątując w nie Dżina z butelki, latającego, mechanicznego konia, wszystko widzący magiczny klejnot, latający dywan i piękną księżniczkę.

Złodziej z Bagdadu / The Thief of Bagdad (1940) DVDRip.x264-INFERNO


Złodziej z Bagdadu / The Thief of Bagdad (1940) DVDRip.x264-INFERNO

Złodziej z Bagdadu / The Thief of Bagdad (1940) DVDRip.x264-INFERNO

Złodziej z Bagdadu / The Thief of Bagdad (1940) DVDRip.x264-INFERNO

Złodziej z Bagdadu / The Thief of Bagdad (1940) DVDRip.x264-INFERNO



Złodziej z Bagdadu / The Thief of Bagdad (1940) DVDRip.x264-INFERNO

Format : MPEG-4
Format profile : Base Media
Codec ID : isom
File size : 450 MiB
Duration : 1h 46mn
Overall bit rate : 591 Kbps

Video

Format : AVC
Format/Info : Advanced Video Codec
Format profile : High@L4.1
Format settings, CABAC : No
Format settings, ReFrames : 5 frames
Codec ID : avc1
Codec ID/Info : Advanced Video Coding
Duration : 1h 46mn
Bit rate mode : Variable
Bit rate : 543 Kbps
Width : 656 pixels
Height : 480 pixels
Display aspect ratio : 4/3
Frame rate mode : Constant
Frame rate : 23.976 fps
Standard : NTSC
Resolution : 24 bits
Colorimetry : 4:2:0
Scan type : Progressive
Bits/(Pixel*Frame) : 0.072
Stream size : 412 MiB (92%)
Language : English

Audio

Format : AAC
Format/Info : Advanced Audio Codec
Format version : Version 4
Format profile : LC
Format settings, SBR : No
Codec ID : 40
Duration : 1h 46mn
Bit rate mode : Constant
Bit rate : 48.0 Kbps
Channel(s) : 2 channels
Channel positions : L R
Sampling rate : 44.1 KHz
Resolution : 16 bits
Stream size : 36.5 MiB (8%)
Language : English


Złodziej z Bagdadu / The Thief of Bagdad (1940) DVDRip.x264-INFERNO





Informacje

Jeżeli chcesz skomentować artykuł musisz być zarejestrowany na stronie.