EXSite.pl - Portal ze wszystkim Mamy tutaj wszystko

NIE MASZ JESZCZE KONTA? ZAREJESTRUJ SIĘ ZA DARMO!   
Przypomnij hasło X

Transit (2012) BRRIP.Xvid-BHRG / Dla EXsite.pl

Dodał: dixiluk 7 Styczeń 2012 16:21


Transit (2012) BRRIP.Xvid-BHRG / Dla EXsite.pl
Transit (2012) BRRIP.Xvid-BHRG / Dla EXsite.pl

Info:

Gatunek: Dramat, Kryminał
Rezyser: Antonio Negret
Scenariusz: Michael Gilvary

Waga: 709.142 MB + Dane Naprawcze w partach po 400mb

Transit (2012) BRRIP.Xvid-BHRG / Dla EXsite.pl


Transit to mroczny thriller opowiadający o grupce rabusiów, którzy po napadzie na bank zatrzymuje się w pobliskim barze. Postanawiają ukryć łup w bagażniku jednego z samochodów zaparkowanych przed budynkiem. Okazuje się, że ten należy do rodziny, która je w barze posiłek. Gdy zagrożenie ze strony policji mija gangsterzy ruszają w pościg za rodziną, która odjechała do domu..

Transit (2012) BRRIP.Xvid-BHRG / Dla EXsite.pl


Transit (2012) BRRIP.Xvid-BHRG / Dla EXsite.pl

Transit (2012) BRRIP.Xvid-BHRG / Dla EXsite.pl

Transit (2012) BRRIP.Xvid-BHRG / Dla EXsite.pl

Transit (2012) BRRIP.Xvid-BHRG / Dla EXsite.pl



Transit (2012) BRRIP.Xvid-BHRG / Dla EXsite.pl

File size : 703 MiB
Duration : 1h 28mn
Overall bit rate : 1 113 Kbps

Video
ID : 0
Format : MPEG-4 Visual
Format profile : Advanced Simple@L5
Format settings, BVOP : 2
Format settings, QPel : No
Format settings, GMC : No warppoints
Format settings, Matrix : Default (H.263)
Codec ID : XVID
Codec ID/Hint : XviD
Duration : 1h 28mn
Bit rate : 979 Kbps
Width : 640 pixels
Height : 272 pixels
Display aspect ratio : 2.35:1
Frame rate : 23.976 fps
Color space : YUV
Chroma subsampling : 4:2:0
Bit depth : 8 bits
Scan type : Progressive
Compression mode : Lossy
Bits/(Pixel*Frame) : 0.235
Stream size : 618 MiB (88%)
Writing library : XviD 1.2.1 (UTC 2008-12-04)

Audio
ID : 1
Format : MPEG Audio
Format version : Version 1
Format profile : Layer 3
Mode : Joint stereo
Mode extension : MS Stereo
Codec ID : 55
Codec ID/Hint : MP3
Duration : 1h 28mn
Bit rate mode : Constant
Bit rate : 128 Kbps
Channel(s) : 2 channels
Sampling rate : 48.0 KHz
Compression mode : Lossy
Stream size : 80.7 MiB (11%)
Alignment : Aligned on interleaves
Interleave, duration : 167 ms (4.01 video frames)
Interleave, preload duration : 216 ms
Title : noscr-transit.720p - [2] English
Writing library : LAME3.98r
Encoding settings : -m j -V 4 -q 2 -lowpass 17 -b 128


Transit (2012) BRRIP.Xvid-BHRG / Dla EXsite.pl





Informacje

Jeżeli chcesz skomentować artykuł musisz być zarejestrowany na stronie.