EXSite.pl - Portal ze wszystkim Mamy tutaj wszystko

NIE MASZ JESZCZE KONTA? ZAREJESTRUJ SIĘ ZA DARMO!   
Przypomnij hasło X

Hostel 3 / Hostel: Part III (2011) UNRATED.720p.HDRiP.x264.AC3-SiC

Dodał: ampatinis 10 Styczeń 2012 21:46


Hostel 3 / Hostel: Part III (2011) UNRATED.720p.HDRiP.x264.AC3-SiC

Hostel 3 / Hostel: Part III (2011) UNRATED.720p.HDRiP.x264.AC3-SiC

Hostel 3 / Hostel: Part III (2011) UNRATED.720p.HDRiP.x264.AC3-SiC
Akcja najnowszej części serii 'Hostel' ze Słowacji przeniesie się do Las Vegas. Tym razem krwawa jatka zostanie urządzona uczestnikom wieczoru kawalerskiego.

MediaInfo:
General
Complete name : Hostel.Part.III.2011.UNRATED.720p.HDRiP.x264.AC3-SiC.mkv
Format : Matroska
Format version : Version 2
File size : 2.20 GiB
Duration : 1h 27mn
Overall bit rate : 3 584 Kbps
Encoded date : UTC 2012-01-09 17:29:23
Writing application : mkvmerge v4.0.0 ('The Stars were mine') built on Jun 6 2010 16:18:42
Writing library : libebml v1.0.0 + libmatroska v1.0.0

Video
ID : 1
Format : AVC
Format/Info : Advanced Video Codec
Format profile : High@L4.1
Format settings, CABAC : Yes
Format settings, ReFrames : 1 frame
Codec ID : V_MPEG4/ISO/AVC
Duration : 1h 27mn
Bit rate : 3 200 Kbps
Width : 1 280 pixels
Height : 720 pixels
Display aspect ratio : 16:9
Frame rate : 23.976 fps
Color space : YUV
Chroma subsampling : 4:2:0
Bit depth : 8 bits
Scan type : Progressive
Bits/(Pixel*Frame) : 0.145
Stream size : 1.92 GiB (87%)
Writing library : x264 core 68 r1195bm 5d75a9b
Encoding settings : cabac=1 / ref=1 / deblock=1:0:0 / analyse=0x3:0x13 / me=umh / subme=7 / psy_rd=0.0:0.0 / mixed_ref=0 / me_range=16 / chroma_me=1 / trellis=1 / 8x8dct=1 / cqm=0 / deadzone=21,11 / chroma_qp_offset=0 / threads=1 / thread_queue=1 / nr=0 / decimate=1 / mbaff=0 / bframes=0 / keyint=250 / keyint_min=25 / scenecut=40 / rc=abr / bitrate=3200 / ratetol=1.0 / qcomp=0.60 / qpmin=10 / qpmax=51 / qpstep=4 / ip_ratio=1.40 / aq=2:1.00
Language : English

Audio
ID : 2
Format : AC-3
Format/Info : Audio Coding 3
Mode extension : CM (complete main)
Codec ID : A_AC3
Duration : 1h 27mn
Bit rate mode : Constant
Bit rate : 384 Kbps
Channel(s) : 6 channels
Channel positions : Front: L C R, Side: L R, LFE
Sampling rate : 48.0 KHz
Bit depth : 16 bits
Compression mode : Lossy
Stream size : 241 MiB (11%)


Hostel 3 / Hostel: Part III (2011) UNRATED.720p.HDRiP.x264.AC3-SiC

Hostel 3 / Hostel: Part III (2011) UNRATED.720p.HDRiP.x264.AC3-SiC Hostel 3 / Hostel: Part III (2011) UNRATED.720p.HDRiP.x264.AC3-SiC

Hostel 3 / Hostel: Part III (2011) UNRATED.720p.HDRiP.x264.AC3-SiC
Uwaga! Linki nie zakodowane tylko dla zarejestrowanych użytkowników!

Nie masz konta? Zarejestruj się za darmo!
----------------
Links are not encoded only for registered users only! Plese login or register!



Informacje

Jeżeli chcesz skomentować artykuł musisz być zarejestrowany na stronie.