EXSite.pl - Portal ze wszystkim Mamy tutaj wszystko

NIE MASZ JESZCZE KONTA? ZAREJESTRUJ SIĘ ZA DARMO!   
Przypomnij hasło X

Apocalypto (2006) 720.BRRIP.X264.AC3-CrEwSaDe

Dodał: ampatinis 10 Styczeń 2012 22:03


Apocalypto (2006) 720.BRRIP.X264.AC3-CrEwSaDe

Apocalypto (2006) 720.BRRIP.X264.AC3-CrEwSaDe

Apocalypto (2006) 720.BRRIP.X264.AC3-CrEwSaDe

Kolejne po "Pasji" równie wielkie, co tajemnicze przedsięwzięcie Mela Gibsona. Owiana legendami zagadkowa cywilizacja Majów na wielkim ekranie. Opowiedziana w konwencji przygody historia o ludzkich namiętnościach, dramatach i walce na śmierć i życie w sercu nieprzeniknionej jeszcze przez hiszpa?skich konkwistadorów dżungli. Film zrealizowany z wielkim rozmachem, z dramaturgicznym zacięciem i autentyzmem. Bohaterowie mówią w zapomnianym dialekcie Majów, a aktorzy zatrudnieni przy realizacji filmu to rdzenna ludność Meksyku.

Reżyseria: Mel Gibson
Scenariusz: Farhad Safinia, Mel Gibson
Premiera: 29 grudnia 2006 (Polska) 8 grudnia 2006 (świat)
Produkcja: USA
Gatunek: Dramat, Przygodowy
Czas trwania: 132 min.
Obsada: Rudy Youngblood, Dalia Hernandez, Jonathan Brewer,
Morris Birdyellowhead...


Encoder ..........: Crazycook
Video Codec.......: AVC
Video Bitrate.....: 2365 kbs
Audio Codec.......: AC3
Audio Bitrate.....: 384 kbs, 6 channels
Resolution........: 1280X720, 23.976 fps
Runtime...........: 2h 12mn
Release Date......: 10 Jan. 2012
Theatre Date......: 8 December 2006
Language..........: Maya
Subtitles.........: English
IMDB Rating.......: 7.8 / 10
IMDb URL..........: http://www.imdb.com/title/tt0472043/

General
Unique ID : 245851564421068249674180746370026368442 (0xB8F549FA8C1B61268DDB863D36C4EDBA)
Complete name : D:\torrent data\Apocalypto.2006.720.BRRIP.X264.AC3.CrEwSaDe\Apocalypto.2006.720p.BRRIP.X264.AC3.CrEwSaDe.mkv
Format : Matroska
Format version : Version 2
File size : 2.53 GiB
Duration : 2h 12mn
Overall bit rate : 2 746 Kbps
Encoded date : UTC 2012-01-10 04:29:34
Writing application : mkvmerge v5.2.1 ('A Far Off Place') built on Jan 2 2012 23:21:10
Writing library : libebml v1.2.3 + libmatroska v1.3.0

Video
ID : 1
Format : AVC
Format/Info : Advanced Video Codec
Format profile : High@L3.1
Format settings, CABAC : Yes
Format settings, ReFrames : 5 frames
Muxing mode : Header stripping
Codec ID : V_MPEG4/ISO/AVC
Duration : 2h 12mn
Bit rate : 2 365 Kbps
Width : 1 280 pixels
Height : 720 pixels
Display aspect ratio : 16:9
Frame rate : 25.000 fps
Color space : YUV
Chroma subsampling : 4:2:0
Bit depth : 8 bits
Scan type : Progressive
Bits/(Pixel*Frame) : 0.103
Stream size : 2.13 GiB (84%)
Writing library : x264 core 120 r2120 0c7dab9
Encoding settings : cabac=1 / ref=5 / deblock=1:-1:-1 / analyse=0x3:0x133 / me=umh / subme=6 / psy=1 / psy_rd=1.00:0.00 / mixed_ref=1 / me_range=16 / chroma_me=1 / trellis=2 / 8x8dct=1 / cqm=0 / deadzone=21,11 / fast_pskip=1 / chroma_qp_offset=-2 / threads=12 / sliced_threads=0 / nr=0 / decimate=1 / interlaced=0 / bluray_compat=0 / constrained_intra=0 / bframes=3 / b_pyramid=2 / b_adapt=2 / b_bias=0 / direct=3 / weightb=1 / open_gop=0 / weightp=2 / keyint=250 / keyint_min=25 / scenecut=40 / intra_refresh=0 / rc_lookahead=40 / rc=2pass / mbtree=1 / bitrate=2365 / ratetol=1.0 / qcomp=0.60 / qpmin=10 / qpmax=51 / qpstep=4 / cplxblur=20.0 / qblur=0.5 / ip_ratio=1.40 / aq=1:1.00

Audio
ID : 2
Format : AC-3
Format/Info : Audio Coding 3
Mode extension : CM (complete main)
Muxing mode : Header stripping
Codec ID : A_AC3
Duration : 2h 12mn
Bit rate mode : Constant
Bit rate : 384 Kbps
Channel(s) : 6 channels
Channel positions : Front: L C R, Side: L R, LFE
Sampling rate : 48.0 KHz
Bit depth : 16 bits
Compression mode : Lossy
Stream size : 363 MiB (14%)


Apocalypto (2006) 720.BRRIP.X264.AC3-CrEwSaDe

Apocalypto (2006) 720.BRRIP.X264.AC3-CrEwSaDe Apocalypto (2006) 720.BRRIP.X264.AC3-CrEwSaDe

Apocalypto (2006) 720.BRRIP.X264.AC3-CrEwSaDe
Uwaga! Linki nie zakodowane tylko dla zarejestrowanych użytkowników!

Nie masz konta? Zarejestruj się za darmo!
----------------
Links are not encoded only for registered users only! Plese login or register!



Użytkownik VIP

H1sVIP Uploader

#1 | Dodany: 11 Styczeń 2012 07:26

Apocalypto.2006.PL.BRRip.XviD.AC3-LTN
ROZMIAR: 2,04 GB
Wideo: AVI, 720x384, XviD ~ 1.667 Kb/s, FPS: 23.976
Audio: Polski Lektor (profesjonalny) AC3 5.1 ~ 448 kbps
INFORMACJE EXTRA: Party można pobierać naprzemiennie, Party zawierają dane naprawcze


FileServe:
Uwaga! Linki nie zakodowane tylko dla zarejestrowanych użytkowników!

Nie masz konta? Zarejestruj się za darmo!
----------------
Links are not encoded only for registered users only! Plese login or register!


FileJungle:
Uwaga! Linki nie zakodowane tylko dla zarejestrowanych użytkowników!

Nie masz konta? Zarejestruj się za darmo!
----------------
Links are not encoded only for registered users only! Plese login or register!


UploadStation:
Uwaga! Linki nie zakodowane tylko dla zarejestrowanych użytkowników!

Nie masz konta? Zarejestruj się za darmo!
----------------
Links are not encoded only for registered users only! Plese login or register!


Apocalypto.2006.PL.BRRip.XviD.MP3-LTN
ROZMIAR: 1,36 GB
Wideo: AVI, 720x384, XviD ~ 1274 kbps, FPS: 23.976
Audio: Polski Lektor (profesjonalny) MP3 2.0 ~ 128 kbps


FileServe:
Uwaga! Linki nie zakodowane tylko dla zarejestrowanych użytkowników!

Nie masz konta? Zarejestruj się za darmo!
----------------
Links are not encoded only for registered users only! Plese login or register!


FileJungle:
Uwaga! Linki nie zakodowane tylko dla zarejestrowanych użytkowników!

Nie masz konta? Zarejestruj się za darmo!
----------------
Links are not encoded only for registered users only! Plese login or register!


UploadStation:
Uwaga! Linki nie zakodowane tylko dla zarejestrowanych użytkowników!

Nie masz konta? Zarejestruj się za darmo!
----------------
Links are not encoded only for registered users only! Plese login or register!
Moje Uploady:
KLIK!
Użytkownik VIP

sajmon22VIP

#2 | Dodany: 19 Styczeń 2012 14:12

Apocalypto (2006) PL.DVDRip.XviD.AC3-PiratesZone
Encoded by: Dynia78
Release Date: 2012-01-17
Runtime: 02:12:05
Source (V): DVD- Dynia78
Source (A): N/A
Resolution: 640x352 (16:9)
Video Codec: XviD MPEG-4
Video Bitrate: 1081 Kbps
Audio Codec: AC-3 5.1
Audio Bitrate: 384 Kbps
Framerate: 25.000 fps
Language: Polish
Subtitles: N/A

**Do wypakowania użyj jednego z programów Hjsplit, Jzip, 7zip..... **
Uwaga! Linki nie zakodowane tylko dla zarejestrowanych użytkowników!

Nie masz konta? Zarejestruj się za darmo!
----------------
Links are not encoded only for registered users only! Plese login or register!

Informacje

Jeżeli chcesz skomentować artykuł musisz być zarejestrowany na stronie.