EXSite.pl - Portal ze wszystkim Mamy tutaj wszystko

NIE MASZ JESZCZE KONTA? ZAREJESTRUJ SIĘ ZA DARMO!   
Przypomnij hasło X

Kill List (2011) BRRiP.720p.x264.DTS-SiC

Dodał: ampatinis 11 Styczeń 2012 18:14


Kill List (2011) BRRiP.720p.x264.DTS-SiC

Kill List (2011) BRRiP.720p.x264.DTS-SiC

Kill List (2011) BRRiP.720p.x264.DTS-SiC
Po powrocie do domu po 8 miesięcznej pracy w Kijowie, która pozostawiła fizyczne i psychiczne blizny, Jay (Neil Maskel) - były żołnierz i płatny morderca, żyje na bezrobociu. Kłopoty małże?skie i obciążenia finansowe powodują, że przyjmuję on ofertę przyjaciela, proponującego powrót do dawnej profesji. Zadanie z pozoru wydaje się łatwe: trzy nazwiska i spora suma pieniędzy za jego wykonanie. Jednak okazuje się ono znacznie trudniejsze i bardziej przerażające niż mogliby to sobie wyobrazić.


General:
Complete name : Kill.List.2011.BRRiP.720p.x264.DTS-SiC.mkv
Format : Matroska
Format version : Version 2
File size : 2.51 GiB
Duration : 1h 35mn
Overall bit rate : 3 763 Kbps
Encoded date : UTC 2012-01-10 21:47:57
Writing application : mkvmerge v4.8.0 ('I Got The...') built on May 24 2011 03:12:58
Writing library : libebml v1.2.0 + libmatroska v1.1.0

Video
ID : 1
Format : AVC
Format/Info : Advanced Video Codec
Format profile : High@L3.1
Format settings, CABAC : Yes
Format settings, ReFrames : 5 frames
Muxing mode : Header stripping
Codec ID : V_MPEG4/ISO/AVC
Duration : 1h 35mn
Bit rate : 2 996 Kbps
Width : 1 280 pixels
Height : 544 pixels
Display aspect ratio : 2.35:1
Frame rate mode : Variable
Frame rate : 23.976 fps
Color space : YUV
Chroma subsampling : 4:2:0
Bit depth : 8 bits
Scan type : Progressive
Bits/(Pixel*Frame) : 0.179
Stream size : 1.96 GiB (78%)
Writing library : x264 core 112
Language : English
Default : Yes
Forced : No

Audio
ID : 2
Format : DTS
Format/Info : Digital Theater Systems
Muxing mode : Header stripping
Codec ID : A_DTS
Duration : 1h 35mn
Bit rate mode : Constant
Bit rate : 755 Kbps
Channel(s) : 6 channels
Channel positions : Front: L C R, Side: L R, LFE
Sampling rate : 48.0 KHz
Bit depth : 24 bits
Compression mode : Lossy
Stream size : 515 MiB (20%)
Default : Yes
Forced : No


Kill List (2011) BRRiP.720p.x264.DTS-SiC

Kill List (2011) BRRiP.720p.x264.DTS-SiC Kill List (2011) BRRiP.720p.x264.DTS-SiC

Kill List (2011) BRRiP.720p.x264.DTS-SiC
Uwaga! Linki nie zakodowane tylko dla zarejestrowanych użytkowników!

Nie masz konta? Zarejestruj się za darmo!
----------------
Links are not encoded only for registered users only! Plese login or register!



Informacje

Jeżeli chcesz skomentować artykuł musisz być zarejestrowany na stronie.